<?xml version="1.0" standalone="no"?>
<!DOCTYPE svg PUBLIC "-//W3C//DTD SVG 1.1//EN" "http://www.w3.org/Graphics/SVG/1.1/DTD/svg11.dtd" >
<svg xmlns="http://www.w3.org/2000/svg" xmlns:xlink="http://www.w3.org/1999/xlink" version="1.1">
<metadata>
Created by FontForge 20161003 at Fri Jul 12 12:33:18 2019
 By www-data
Copyright (c) 2018 by Hislide. All rights reserved.
</metadata>
<defs>
<font id="fontkikoreg" horiz-adv-x="1200" >
  <font-face 
    font-family="font kiko"
    font-weight="400"
    font-stretch="normal"
    units-per-em="1000"
    panose-1="0 0 5 0 0 0 0 0 0 0"
    ascent="800"
    descent="-200"
    bbox="99 -65 1115 1013"
    underline-thickness="50"
    underline-position="-100"
    unicode-range="U+0020-F380"
  />
<missing-glyph horiz-adv-x="533" 
d="M437 -65h-338v1065h338v-1065zM178 274v-121h177v121h-177zM320 188h-107v51h107v-51zM248 458v-60h36v25h36v-50h-107v85h-35v-120h177v120h-107zM320 588v-70h-142v-37h177v107h-35zM178 652v-35h70v-40h-70v-35h106v75h71v35h-177zM248 717h-35v38h35v-38zM178 791
v-110h177v36h-71v74h-106zM179 929v-35h69v-40h-70v-35h177v35h-71v40h71v35h-176zM178 129v-35h74l-74 -50v-36h177v36h-109l75 50h34v35h-177z" />
    <glyph glyph-name=".notdef" horiz-adv-x="533" 
d="M437 -65h-338v1065h338v-1065zM178 274v-121h177v121h-177zM320 188h-107v51h107v-51zM248 458v-60h36v25h36v-50h-107v85h-35v-120h177v120h-107zM320 588v-70h-142v-37h177v107h-35zM178 652v-35h70v-40h-70v-35h106v75h71v35h-177zM248 717h-35v38h35v-38zM178 791
v-110h177v36h-71v74h-106zM179 929v-35h69v-40h-70v-35h177v35h-71v40h71v35h-176zM178 129v-35h74l-74 -50v-36h177v36h-109l75 50h34v35h-177z" />
    <glyph glyph-name="space" unicode=" " horiz-adv-x="0" 
 />
    <glyph glyph-name="u1F686" unicode="&#xf001;" horiz-adv-x="888" 
d="M788 47q0 -24 -20 -38q-12 -9 -27 -9q-24 0 -38 20l-31 43h-337q-19 -1 -33 12.5t-14 33.5t14 33.5t33 13.5h270l-44 63h-233l-143 -199q-14 -20 -38 -20q-15 0 -27 9q-20 14 -20 38q0 15 9 27l104 146q-35 5 -58 31.5t-23 61.5v593q-1 39 26.5 66.5t66.5 27.5h438
q39 0 66.5 -27.5t27.5 -66.5l-1 -594q0 -35 -23.5 -61.5t-57.5 -30.5l104 -146q9 -12 9 -27zM663 313v125h-438v-125h358h80zM225 750v-219h438v219h-438zM225 844h438v62h-438v-62zM310 397q-9 9 -22 9t-22 -9t-9 -22q-1 -13 8.5 -22t22.5 -9t22 9t9 22t-9 22zM622.5 397
q-9.5 9 -22.5 9t-22 -9t-9 -22t9 -22t22 -9t22.5 9t9.5 22t-9.5 22z" />
    <glyph glyph-name="uniF002" unicode="&#xf002;" horiz-adv-x="1187" 
d="M1082 678q5 -7 5 -13q0 -2 -2 -8l-11 -35q-4 -13 -14.5 -22.5t-24.5 -13.5l-38 -9v-284q0 -44 -31 -73v-95q0 -13 -9 -22t-22 -9h-63q-13 0 -22 9t-9 22v55q-123 -22 -249 -24q-127 2 -251 24v-55q0 -13 -9 -22t-22 -9h-63q-13 0 -22 9t-9 22v95q-31 29 -31 73v285l-33 8
q-14 4 -24 13.5t-15 22.5l-12 35q-1 2 -1 7q0 9 4 14q7 8 19 10h114l31 134q9 37 39 60.5t68 23.5h432q38 0 68 -23.5t39 -60.5l31 -134h118q12 0 19 -10zM591 615q136 0 271 18l-40 167q-1 6 -5.5 9.5t-9.5 3.5h-432q-6 -1 -10 -4.5t-5 -8.5l-40 -167q135 -18 271 -18z
M591 250q152 0 308 37q5 0 5 6l-1 251q-147 -21 -311 -23q-166 2 -313 23l-1 -251q0 -4 5 -6q156 -37 308 -37zM854.5 349.5q13.5 16.5 13.5 37.5v45l-122 -49q-16 -6 -25 -19.5t-9 -30.5v-26l108 22q21 4 34.5 20.5zM453 363.5q9 -13.5 9 -30.5v-26l-108 22
q-21 4 -34.5 20.5t-13.5 37.5v45l122 -49q16 -6 25 -19.5z" />
    <glyph glyph-name="uniF003" unicode="&#xf003;" horiz-adv-x="1202" 
d="M1000 423l-39 51h-156q-19 0 -33 14t-14 33q0 20 14 33.5t33 13.5h86l-31 41q-16 22 -43 22h-91v-282h49q17 28 45.5 45t62.5 17t62.5 -17t45.5 -45h17v48q0 13 -8 26zM905 264q9 9 9 22t-9 22t-22 9t-22 -9t-9 -22t9 -22t22 -9t22 9zM632 411v63h-438v-63h438zM404 308
q-9 9 -22 9t-22 -9t-9 -22t9 -22t22 -9t22 9t9 22t-9 22zM194 756v-188h438v188h-438zM1102 397v-64q0 -32 -23 -55t-55 -23h-20q-11 -41 -44.5 -67.5t-76.5 -26.5t-76.5 26.5t-44.5 67.5h-83q-19 0 -33 14t-14 33v15h-129q4 -20 4 -31q0 -52 -34.5 -88.5t-88.5 -36.5
q-35 -1 -64.5 16.5t-46 47t-16.5 62.5q0 17 4 30h-114q-19 0 -33 14t-14 33v439q0 20 14 33.5t33 13.5h532q20 0 33.5 -13.5t13.5 -33.5v-78h91q35 0 66 -15.5t52 -43.5l140 -187q27 -34 27 -82z" />
    <glyph glyph-name="uniF004" unicode="&#xf004;" horiz-adv-x="1199" 
d="M989.5 602.5q43.5 -22.5 72 -62.5t35.5 -89q2 -20 2 -29q0 -67 -40.5 -121.5t-106.5 -73.5q-29 -8 -55 -8q-60 0 -110.5 32.5t-75.5 88.5q-18 41 -18 82q0 52 25.5 98t70.5 74l-5 16l-13 -6l-113 -159q4 -11 4 -24q0 -21 -11.5 -40t-31.5 -29q-16 -9 -36 -9
q-18 0 -34.5 8.5t-27.5 23.5h-22q-9 -41 -35 -76q-30 -39 -72.5 -59.5t-89.5 -20.5q-60 0 -109 32q-44 28 -68.5 73.5t-24.5 97.5t23 95q27 50 76 79t104 29q40 0 80 -17l46 62l-33 80h-31q-19 0 -33 14t-14 33q0 20 14 33.5t33 13.5h125q18 -1 31.5 -13t14.5 -30t-10 -32.5
t-29 -17.5l13 -32h238l-22 63q-2 10 -2 14q0 16 9 28q14 20 38 20h94q19 0 32.5 -13.5t14.5 -33.5q0 -19 -13.5 -33t-33.5 -14h-29l42 -126q6 1 18 1q50 0 93.5 -22.5zM434 520q0 -1 -1 -1v-1l-37 -49h117l-42 100zM401 375h-99q-13 0 -24.5 7t-17.5 19q-5 12 -5 21
q0 17 10 28l59 79q-14 2 -22 2q-38 0 -68.5 -24.5t-38.5 -61.5q-3 -12 -3 -23q0 -32 17.5 -59t46.5 -40q21 -10 46 -10q26 0 48.5 11t38.5 32q8 10 12 19zM550 625l44 -107l77 107h-121zM971.5 342q31.5 30 33.5 73q3 43 -24.5 76.5t-71.5 38.5l31 -93q3 -7 3 -16
q0 -14 -9 -26.5t-23 -17.5q-5 -2 -14 -2q-15 0 -28 9t-18 23l-31 94q-16 -16 -25 -36.5t-9 -43.5q0 -19 8 -40q13 -31 40.5 -50t61.5 -19q44 0 75.5 30z" />
    <glyph glyph-name="uniF005" unicode="&#xf005;" 
d="M1086.5 80.5q13.5 -13.5 13.5 -33.5q0 -19 -13.5 -33t-33.5 -14h-906q-19 0 -33 14t-14 33q0 20 14 33.5t33 13.5h29l20 61q4 13 14.5 21.5t24.5 10.5l459 55v8h-453q-19 1 -31.5 13t-14.5 30t9.5 32.5t29.5 17.5l110 525l-26 10q-14 5 -22.5 17t-8.5 26q0 6 4 18
q5 14 17 22t27 8q9 0 16 -3l343 -132v41h-47q-19 0 -33 14t-14 33q0 20 14 33.5t33 13.5h50q5 14 17 22.5t27 8.5l8 -1q16 -3 27 -16t12 -30v-52l245 -522q5 -10 5 -20q0 -12 -8 -25q-6 -10 -16.5 -15.5t-22.5 -5.5h-203v-60l228 28q13 1 24 -3.5t19 -14.5q10 -15 10 -29
q0 -10 -4 -18q-26 -67 -81 -122h69q20 0 33.5 -13.5zM788 406h129l-129 275v-275zM694 733l-261 101l-103 -490h364v389zM796 94q83 18 138 83l-658 -79l-2 -4h522z" />
    <glyph glyph-name="uniF006" unicode="&#xf006;" horiz-adv-x="1201" 
d="M944 479.5q39 9.5 57 21.5q-18 12 -57 21.5t-77 9.5h-360q-52 0 -121 -11l-27 -4l-125 156h-9l49 -172l-49 -172h9l125 156l27 -4q69 -11 121 -11h360q38 0 77 9.5zM562 376l-65 -282h28l146 282h-109zM562 626h109l-146 282h-28zM966.5 613.5q54.5 -12.5 94.5 -40.5
t40 -72t-40 -72t-94.5 -40.5t-99.5 -12.5h-90l-49 -94h13q6 0 10.5 -4.5t4.5 -11.5v-63q0 -6 -4.5 -10.5t-10.5 -4.5h-62l-66 -129q-14 -27 -40.5 -43t-57.5 -16h-72q-21 0 -36 15.5t-15 36.5q0 7 1 11l73 314q-19 1 -68 7l-86 -108q-16 -19 -38.5 -30t-47.5 -11h-58
q-21 0 -36 15t-15 36q0 4 2 14l42 149q-5 3 -10.5 5.5t-10.5 5.5l-24 13q-16 9 -16 28t16 28l24 13q5 3 10.5 5.5t10.5 5.5l-42 149q-2 10 -2 14q0 21 15 36t36 15h58q25 0 47.5 -11t38.5 -30l86 -108q49 6 68 7l-73 314q-1 4 -1 11q0 21 15 36.5t36 15.5h72q31 0 57.5 -16
t40.5 -43l66 -129h62q6 0 10.5 -4.5t4.5 -10.5v-63q0 -7 -4.5 -11.5t-10.5 -4.5h-13l49 -94h90q45 0 99.5 -12.5z" />
    <glyph glyph-name="u1F681" unicode="&#xf007;" 
d="M1079 278q-21 -38 -57 -62t-79 -28v-31q25 1 47 18q15 13 31 13q8 0 15 -3q12 -4 20.5 -13t11.5 -21q1 -3 1 -10q0 -22 -16 -35q-54 -46 -125 -43h-344q-19 -1 -32.5 12.5t-13.5 33.5q-1 19 12.5 33t33.5 14h16v32l-16 -1q-12 0 -25 8q-60 37 -103.5 93t-64.5 123
l-219 27q-16 1 -27 12.5t-13 27.5l-32 219q-2 21 11 37q14 16 36 16h125q24 0 39 -21l48 -73h241v63q0 13 9 22t22 9h31q14 0 26.5 -7.5t19.5 -20.5l35 -70q98 -11 180 -53t129.5 -105t47.5 -135q0 -43 -21 -81zM895.5 509q-47.5 29 -101.5 40q11 -35 32.5 -63.5t52.5 -47.5
l99 -1q-35 43 -82.5 72zM518.5 360.5q32.5 -47.5 79.5 -79.5h330q28 1 49 18.5t27 44.5h-138q-13 0 -24 6q-59 34 -98 89.5t-50 122.5l-16 1h-344q-11 0 -21.5 5t-17.5 15l-48 73h-46l19 -130l214 -26q14 -2 25 -12t15 -24q12 -56 44.5 -103.5zM850 156v32h-156v-32h156z
M239 795q14 -14 33 -14h781q20 0 33.5 14t13.5 33q0 20 -13.5 33.5t-33.5 13.5h-781q-19 0 -33 -13.5t-14 -33.5q0 -19 14 -33z" />
    <glyph glyph-name="uniF008" unicode="&#xf008;" 
d="M1067.5 469.5q32.5 -42.5 32.5 -95.5q0 -10 -1 -16q-6 -57 -48 -97t-100 -43q-58 -2 -103.5 33.5t-56.5 92.5h-319q-11 -55 -54 -90t-99 -35t-99.5 35t-53.5 90h-19q-19 -1 -32.5 12.5t-14.5 32.5q-2 80 40.5 148.5t115.5 102.5v1q0 32 23 55t55 23h229q41 0 70 -32
q24 -25 24 -62l-1 -11l-14 -126q-2 -21 12 -35q6 -8 15 -12t19 -3l52 -1q18 1 32.5 9t22.5 23l12 19q23 40 23 85q0 28 -8 51l-53 157h-60q-19 0 -32.5 13.5t-13.5 33.5q-1 19 12.5 33t33.5 14h125q15 0 27 -8.5t17 -22.5q3 -7 3 -16q0 -21 -17 -35l47 -139q3 -10 7 -30
q8 1 24 1q47 0 92 -17q16 -5 25 -19.5t7 -31.5t-15.5 -28.5t-30.5 -11.5q-9 0 -18 3l-19 6v0q52 -14 84.5 -56.5zM245.5 523q-37.5 -35 -46.5 -85h343l21 187h-122q29 -18 53 -44q11 -14 11 -30q0 -20 -15 -34q-15 -13 -32 -13q-19 0 -33 14q-18 20 -41.5 31.5t-49.5 12.5
q-51 -4 -88.5 -39zM350 321q14 8 23 23h-108q8 -15 22.5 -23t31.5 -9q17 1 31 9zM945 531q-9 0 -25 -2v0q16 2 24 2q14 0 31 -3h-1q-15 3 -29 3zM988 330.5q18 18.5 18 44.5t-18 44t-44 18q-26 1 -44.5 -17.5t-18.5 -44.5t18.5 -44t44.5 -18q26 -1 44 17.5z" />
    <glyph glyph-name="uniF009" unicode="&#xf009;" horiz-adv-x="1202" 
d="M985 304q23 23 23 55q0 26 -15.5 46t-39.5 28l21 -58q3 -7 3 -16q0 -15 -8.5 -27.5t-22.5 -16.5q-7 -3 -16 -3q-14 0 -26.5 8.5t-17.5 22.5l-21 59q-13 -17 -13 -43q0 -32 23 -55t55 -23t55 23zM786 623q-73 -8 -140 -50l-59 -59q-14 -14 -33 -14q-6 0 -9 1l-16 3
l82 -129h30l12 62h-5q-19 0 -33 14t-14 33q0 20 14 33.5t33 13.5h47l97 73zM322.5 299q21.5 18 26.5 46l-56 -28q-12 -5 -21 -5q-13 0 -24.5 7t-17.5 19q-5 12 -5 21q0 13 7 24t19 18l56 28q-18 8 -35 8q-32 0 -55 -23t-23 -55t23 -55t55 -23q29 0 50.5 18zM1016.5 508
q39.5 -23 62.5 -62.5t23 -86.5t-23 -86.5t-62.5 -62.5t-86.5 -23t-86.5 23t-62.5 62.5t-23 86.5q0 43 19 79.5t53 60.5l-4 13l-73 -55l-28 -139q-3 -16 -16 -26.5t-30 -10.5h-94q-12 0 -22.5 5.5t-16.5 15.5l-43 69l-59 -10v-2q0 -47 -23 -86.5t-62.5 -62.5t-86.5 -23
t-86.5 23t-62.5 62.5t-23 86.5t23 86.5t62.5 62.5t86.5 23q45 0 83.5 -21.5t61.5 -57.5l31 5l-33 52l-223 88q-8 3 -16 11l-62 62q-14 14 -14 34q0 13 6 23q7 11 18 17t24 6q8 0 12 -1l219 -63q20 -6 29 -24l21 -42l110 -22l45 45l7 6q77 51 162 65l-13 36h-61q-19 0 -33 14
t-14 33q0 20 14 33.5t33 13.5h94q15 0 27.5 -8.5t17.5 -22.5l33 -94h48q20 0 33.5 -13.5t13.5 -33.5q0 -19 -13.5 -33t-33.5 -14h-14l34 -94h11q47 0 86.5 -23z" />
    <glyph glyph-name="uniF010" unicode="&#xf010;" horiz-adv-x="826" 
d="M524.5 205.5q13.5 -13.5 13.5 -33.5v-94q0 -32 -23 -55t-55 -23h-94q-32 0 -55 23t-23 55v94q0 20 14 33.5t33 13.5h156q20 0 33.5 -13.5zM382 125v-31h62v31h-62zM701.5 806.5q24.5 -59.5 24.5 -123.5q0 -84 -41 -157q-33 -58 -88 -91q-27 -16 -42.5 -43.5t-16.5 -59.5
v-4q0 -19 -13.5 -33t-33.5 -14h-156q-19 0 -33 14t-14 33v4q-1 30 -15.5 57t-39.5 43q-63 44 -98 112t-35 145q0 11 2 31q9 76 51 139t107.5 100.5t142.5 40.5q64 2 123 -21t105 -67q46 -46 70.5 -105.5zM459 406h-91q6 -15 9 -31h72q3 17 10 31zM607.5 587.5
q24.5 47.5 24.5 99.5q0 36 -12 70q-22 69 -81.5 110t-132.5 39q-54 -2 -100 -28t-75.5 -70t-35.5 -97q-1 -8 -1 -23q0 -54 24.5 -101t68.5 -78l11 -9h230l11 9v0q44 31 68.5 78.5z" />
    <glyph glyph-name="uniF011" unicode="&#xf011;" 
d="M1100 771q0 -34 -21 -60q-37 -47 -93 -84l-131 -83l-56 -206q-4 -16 -19 -27l-127 -85q-11 -8 -27 -8q-13 0 -22 5q-11 7 -17.5 18t-6.5 24v106q-2 -1 -10 -4l-166 -30q-3 -1 -8 -1q-9 0 -18 3l-249 100q-12 5 -20 16t-9 24t5 25t17 19l127 79q15 8 30 7l141 -14l56 36
l-110 59q-23 13 -25 39q0 12 5.5 23t15.5 18l109 74q11 8 26 8q5 0 13 -2l214 -60l43 28q56 36 126 41l104 8q28 2 53 -11.5t39 -39.5q11 -19 11 -45zM619 723l-113 31l-27 -18l88 -47zM674 496v-143l39 26l46 171zM1006 769l-3 4l-104 -7q-42 -3 -82 -27l-360 -232
q-15 -8 -30 -7l-142 14l-35 -22l151 -61l144 26l36 23v41q0 12 5.5 22.5t15.5 17.5l210 133q11 8 24 8q8 0 15 -3q20 -6 29 -28l56 35h-1q39 25 71 63zM1086.5 14q13.5 14 13.5 33q0 20 -13.5 33.5t-33.5 13.5h-906q-19 0 -33 -13.5t-14 -33.5q0 -19 14 -33t33 -14h906
q20 0 33.5 14z" />
    <glyph glyph-name="uniF012" unicode="&#xf012;" horiz-adv-x="1202" 
d="M1065.5 439q7.5 -18 7.5 -37q0 -39 -27 -67.5t-66 -29.5h-15q-58 0 -109 16l-149 44l-193 -93q-10 -5 -20 -5q-4 0 -12 2l-149 40q-15 4 -24.5 16.5t-9.5 28.5q0 22 16 36l80 69q-6 2 -9 5l-132 106q-10 8 -15 21l-88 254q-3 8 -3 15q0 19 14 33t33 14q10 0 14 -2
l144 -44q14 -4 24 -18l82 -116l65 -19l-28 122q-1 4 -1 11q0 20 14 33.5t33 13.5q4 0 12 -2l128 -34q21 -5 30 -25l95 -201l49 -15q63 -18 114 -67l74 -74q14 -13 21.5 -31zM687 661l-51 106l-31 9l22 -98zM551 470l-108 -94l46 -12l160 77zM904 477q-32 32 -75 44l-412 121
q-16 5 -25 18l-82 116l-40 12l53 -154l114 -91l41 -12l32 27q13 11 30 11q4 0 14 -2l238 -70q15 -5 24.5 -17t9.5 -28q0 -12 -6 -23l63 -18q41 -14 93 -12l2 4zM1088.5 14q13.5 14 13.5 33q0 20 -13.5 33.5t-33.5 13.5h-908q-19 0 -33 -13.5t-14 -33.5q0 -19 14 -33t33 -14
h908q20 0 33.5 14z" />
    <glyph glyph-name="u1F68C" unicode="&#xf013;" 
d="M773.5 299.5q13.5 -13.5 14.5 -33.5q0 -19 -13.5 -33t-33.5 -14h-282q-19 0 -32.5 13.5t-13.5 33.5q-1 19 12.5 33t33.5 14l282 -1q19 1 32.5 -12.5zM307 299.5q-14 -13.5 -14 -33.5q0 -19 14 -33t33 -14t32.5 14t13.5 33t-13.5 33t-32.5 14t-33 -13.5zM833 299.5
q-14 -13.5 -14 -33.5q0 -19 14 -33t33 -14q20 0 33.5 14t13.5 33q0 20 -13.5 33.5t-33.5 13.5q-19 0 -33 -13.5zM1091 741q9 -9 9 -22v-219q0 -13 -9 -22t-22 -9h-31l-1 -282q0 -47 -31 -81v-75q0 -13 -9 -22t-22 -9h-125q-13 0 -22 9t-9 22v32h-438v-32q0 -13 -9 -22
t-22 -9h-125q-13 0 -22 9t-9 22v75q-31 34 -31 82v281h-32q-13 0 -22 9t-9 22v219q0 13 9 22t22 9h32v125q0 34 16.5 62.5t45.5 45.5t63 17h624q52 0 89 -36.5t37 -88.5v-125h31q13 0 22 -9zM647 469h297v281h-297v-281zM256 750v-281h297v281h-297zM265.5 165.5
q9.5 -9.5 22.5 -9.5h624q14 0 23 9.5t9 22.5v187h-688v-187q0 -13 9.5 -22.5zM265.5 897q-9.5 -9 -9.5 -22v-31h688v31q0 13 -9 22t-22 9h-625q-13 0 -22.5 -9z" />
    <glyph glyph-name="uniF014" unicode="&#xf014;" horiz-adv-x="1199" 
d="M395 669q14 -14 33 -14h343q19 0 33 14t14 33q0 20 -13.5 33.5t-33.5 13.5h-343q-19 0 -33 -13.5t-14 -33.5q0 -19 14 -33zM1085.5 80.5q-13.5 13.5 -33.5 13.5h-115q89 112 114 255q1 3 1 10q0 22 -16 35q-59 52 -125 88v66l37 19q12 6 19 17.5t7 24.5v249
q0 20 -13.5 33.5t-33.5 13.5h-235l-21 66q-4 12 -15 20t-24 8h-66q-13 0 -23.5 -8t-14.5 -20l-21 -66h-235q-19 0 -33 -13.5t-14 -33.5v-249q0 -16 9 -28.5t24 -16.5l29 -9v-73q-70 -40 -124 -88q-16 -14 -16 -34q0 -7 1 -10q23 -141 114 -256h-115q-19 0 -33 -13.5
t-14 -33.5q0 -19 14 -33t33 -14h905q20 0 33.5 14t13.5 33q0 20 -13.5 33.5zM880 811v-173l-36 -19q-12 -6 -19 -17.5t-7 -24.5v-50q-96 41 -209 65q-3 1 -9 1q-7 0 -10 -1q-113 -24 -209 -65v62q0 15 -9.5 27.5t-23.5 17.5l-30 9v168h562zM896.5 197q-35.5 -58 -94.5 -103
h-405q-60 45 -95.5 103t-55.5 144q136 105 307 146v-315q0 -19 13.5 -33t32.5 -14q20 0 33.5 14t13.5 33v315q171 -41 307 -146q-21 -86 -56.5 -144z" />
    <glyph glyph-name="uniF015" unicode="&#xf015;" horiz-adv-x="1189" 
d="M860.5 249q13.5 16 13.5 38v45l-123 -50q-15 -6 -24 -19.5t-9 -30.5v-26l108 22q21 5 34.5 21zM457.5 262q9.5 -14 9.5 -30v-26l-109 22q-21 5 -34.5 21t-13.5 38v45l123 -50q15 -6 24.5 -20zM1089 572q0 10 -7 16.5t-16 6.5h-119l-31 135q-9 37 -39 61t-68 24h-44v-94
h44q12 -2 15 -13l40 -167q-135 -18 -272 -18q-136 0 -271 18l39 167q2 6 6 9.5t10 3.5h44v94h-44q-38 0 -68.5 -24t-38.5 -61l-32 -135h-114q-10 0 -16.5 -6.5t-6.5 -16.5q0 -5 1 -7l12 -35q5 -14 15 -23.5t24 -12.5l33 -8v-287q0 -43 31 -72v-96q0 -13 9.5 -22t22.5 -9h62
q13 0 22.5 9t9.5 22v56q120 -23 251 -25q128 2 250 25v-56q0 -13 9 -22t22 -9h63q13 0 22 9t9 22v96q31 29 31 72v285l38 10q13 3 23.5 12.5t15.5 23.5l12 35q1 2 1 7zM904.5 195.5q-1.5 -1.5 -3.5 -1.5q-149 -37 -309 -37q-158 0 -309 37q-2 0 -3 1.5t-1 3.5v253
q159 -23 314 -23q154 0 312 23v-253q1 -2 -0.5 -3.5zM618.5 571.5q-12.5 -8.5 -26.5 -8.5q-19 0 -33 14t-14 33q0 10 4 18l36 93h-55q-19 0 -33 14t-14 33q0 8 3 17l63 157q4 13 16.5 21.5t27.5 8.5q19 0 33 -14t14 -33q0 -6 -4 -18l-37 -92h56q19 -1 33 -14.5t14 -32.5
q0 -10 -4 -18l-62 -157q-5 -13 -17.5 -21.5z" />
    <glyph glyph-name="u1F680" unicode="&#xf016;" 
d="M1098 968.5q4 -10.5 2 -21.5l-32 -219q-2 -16 -13 -27l-328 -328q-86 -198 -233 -357q-6 -7 -15 -11.5t-18 -4.5h-2q-19 0 -33 14l-312 312q-14 14 -14 35q0 9 4.5 18t11.5 15q159 147 357 233l328 328q11 11 27 13l219 32q11 2 21.5 -2t17.5 -12q8 -7 12 -17.5zM216 357
l55 -55q94 102 172 209q-128 -68 -227 -154zM611 343q-107 -78 -209 -172l55 -55q86 99 154 227zM856 878l-250 -250q4 -8 4 -19q0 -12 -6 -23q-107 -177 -250 -332q155 143 332 250q11 6 23 6q11 0 19 -4l40 41l-50 50q-13 13 -13 33t13 33q16 14 33 14q19 0 33 -14l50 -50
l38 38l-50 50q-13 13 -13 32q0 20 14 34t33 14q17 0 32 -13l51 -51l39 39l20 142z" />
    <glyph glyph-name="uniF017" unicode="&#xf017;" horiz-adv-x="1201" 
d="M1091.5 923q9.5 -23 9.5 -48q0 -7 -2 -21l-14 -85q-12 -77 -68 -133l-16 -15q-51 -77 -77.5 -166.5t-25.5 -182.5q2 -45 -14.5 -87t-47.5 -73l-32 -31l-53 -54q-29 -27 -66 -27q-18 0 -35 7t-30 20l-107 107l-21 -20q-7 -9 -21 -9q-12 0 -21 9l-65 64q-9 9 -9 22
q0 12 9 21l21 20l-32 33l-33 32l-20 -21q-9 -9 -21 -9q-13 0 -22 9l-64 65q-9 9 -9 21q0 14 9 21l20 21l-107 107q-13 13 -20 30t-7 35q0 37 27 66l85 85q32 32 74 48t86 14q93 -1 182.5 25.5t166.5 77.5l15 16q56 56 133 68l85 14q14 2 21 2q25 0 48 -9.5t41 -27.5
t27.5 -41zM803 850l-21 -20l-416 -416l41 -41l159 160q15 13 33 13q20 0 33.5 -13.5t13.5 -33.5q0 -18 -13 -33l-160 -159l41 -41l417 417l20 19q33 35 41 82l15 85v6q0 13 -9.5 22.5t-22.5 9.5h-6l-85 -15q-48 -8 -81 -42zM371 704q-52 3 -91 -33l105 -105l158 158
q-80 -20 -172 -20zM299 480l20 20l-105 105l-21 -21zM706 113l-106 106l-20 -20l106 -106zM824 443l-158 -158l105 -105q36 39 34 90q-2 91 19 173zM797.5 752.5q-7.5 11.5 -7.5 24.5q0 19 14 33t33 14q9 0 17 -3q24 -9 42 -27.5t27 -42.5q2 -10 2 -15q0 -19 -13.5 -33
t-33.5 -14q-14 0 -26.5 8.5t-17.5 22.5q-3 9 -17 15q-12 6 -19.5 17.5z" />
    <glyph glyph-name="u1F691" unicode="&#xf018;" 
d="M1100 438v-188q0 -39 -27.5 -66.5t-66.5 -27.5h-4q-10 -41 -44 -67t-77 -26t-76 26t-44 67h-259q-10 -41 -44 -67t-77 -26t-76 26t-44 67h-67q-39 0 -66.5 27.5t-27.5 66.5v469q0 39 27.5 66.5t66.5 27.5h437l21 63q5 14 16.5 22t26.5 8h29q14 0 26 -8.5t16 -21.5l22 -63
h22q37 0 71 -18t55 -50l130 -196q34 -51 34 -111zM819 718v-155h126l-87 130v0q-14 20 -39 25zM194 438h812v0q0 18 -4 31h-230q-19 0 -33 14t-14 33v203h-531v-281zM404 165q9 9 8 22q1 13 -8 22.5t-23 9.5q-13 0 -22 -9t-9 -22t9 -22.5t22 -9.5q14 0 23 9zM904 165
q9 9 8 22q1 13 -8 22.5t-23 9.5q-13 0 -22 -9t-9 -22t9 -22.5t22 -9.5q14 0 23 9zM1006 344h-812v-94h80q16 29 45 46t62 17q34 0 62.5 -17t45.5 -46h285q16 29 45 46t62 17q34 0 62.5 -17t45.5 -46h17v94zM364 545q-14 14 -14 33q0 20 14 33.5t33 13.5h16v16
q-1 19 12.5 32.5t33.5 14.5q20 0 33.5 -13.5t13.5 -33.5v-16h16q20 0 33.5 -13.5t13.5 -33.5q0 -19 -13.5 -33t-33.5 -14h-16v-15q0 -19 -13.5 -33t-33.5 -14q-19 0 -32.5 13.5t-13.5 33.5v15h-16q-19 0 -33 14z" />
    <glyph glyph-name="uniF019" unicode="&#xf019;" 
d="M466 293.5q9 -13.5 9 -30.5v-26l-108 22q-21 4 -34.5 20.5t-13.5 37.5v45l122 -49q16 -6 25 -19.5zM867.5 279.5q-13.5 -16.5 -34.5 -20.5l-108 -22v26q0 17 9 30.5t25 19.5l122 49v-45q0 -21 -13.5 -37.5zM1091 615q5 -7 5 -13q0 -2 -2 -8l-11 -34q-5 -14 -15.5 -23.5
t-23.5 -12.5l-38 -10v-284q0 -43 -31 -72v-95q0 -13 -9 -22.5t-22 -9.5h-63q-13 0 -22 9.5t-9 22.5v55q-123 -24 -249 -24q-127 0 -251 24v-55q0 -13 -9 -22.5t-22 -9.5h-63q-13 0 -22 9.5t-9 22.5v95q-31 29 -31 72v286l-33 8q-14 3 -24 12.5t-15 23.5l-12 34q-1 3 -1 8
q0 8 4 13q8 10 19 10h114l31 134q11 43 46 66l16 78q8 42 41.5 69.5t76.5 27.5h285q43 0 76.5 -27.5t42.5 -69.5l15 -78q36 -22 47 -66l31 -134h118q12 0 19 -10zM600 553q136 0 271 18l-40 167q-1 5 -5.5 8.5t-9.5 3.5h-432q-5 0 -9.5 -3.5t-5.5 -8.5l-40 -167
q135 -18 271 -18zM663 844h114l-8 40q-1 10 -9 16t-18 6h-79v-62zM440 900q-8 -6 -9 -16l-8 -40h115v62h-81q-9 0 -17 -6zM601 459q-155 0 -313 23v-252q-1 -4 4 -6q156 -37 308 -37t308 37q5 2 5 6l-1 252q-158 -23 -311 -23z" />
    <glyph glyph-name="uniF020" unicode="&#xf020;" horiz-adv-x="1199" 
d="M1089 268q-10 -13 -26 -17q5 -17 5 -32q0 -52 -36.5 -88.5t-88.5 -36.5q-44 0 -78 28q-34 -28 -78 -28q-52 0 -88.5 36.5t-36.5 88.5q0 18 4 31h-134q3 -9 5 -31q0 -52 -36.5 -88.5t-88.5 -36.5q-45 0 -79 28q-34 -28 -78 -28q-52 0 -88.5 36.5t-36.5 88.5q0 15 5 32
q-17 4 -27 19t-8 32q2 18 15 29.5t31 12.5h26q-29 96 -29 201q0 142 53 269q5 14 17 22t27 8h265q0 13 9.5 22t22.5 9h125q13 0 22 -9t9 -22h265q15 0 27 -8t17 -22q53 -127 53 -269q0 -105 -29 -201h26q20 0 33.5 -13.5t13.5 -33.5q0 -16 -10 -29zM236 545q0 -103 36 -201
h46v297q0 20 14 33.5t33 13.5q20 0 33.5 -13.5t13.5 -33.5v-297h375v297q0 20 13.5 33.5t32.5 13.5q20 0 33.5 -13.5t13.5 -33.5v-297h46q36 98 36 201q0 107 -37 205h-652q-37 -98 -37 -205zM278 197q9 9 9 22t-9.5 22t-22.5 9t-22 -9t-9 -22t9 -22t22 -9q14 0 23 9z
M434 241q-9 9 -22 9t-22.5 -9t-9.5 -22t9 -22t23 -9q13 0 22 9t9 22t-9 22zM809 197q9 9 9 22t-9 22t-22 9t-22.5 -9t-9.5 -22t9 -22t23 -9q13 0 22 9zM965 197q9 9 9 22t-9 22t-22 9t-22 -9t-9 -22t9 -22t22 -9t22 9z" />
    <glyph glyph-name="u1F69C" unicode="&#xf021;" 
d="M1100 217q0 -29 -10.5 -56.5t-30.5 -49.5q-23 -25 -53.5 -38.5t-63.5 -13.5q-48 0 -86 25q-35 21 -54 57t-19 76q0 33 13 62q19 44 59 70t87 26q21 0 37 -4l22 223h-404q45 -40 75.5 -91.5t43.5 -109.5q31 43 77 70t99 35q19 2 34.5 -9.5t18.5 -31.5q2 -19 -9.5 -34.5
t-30.5 -17.5q-64 -9 -106.5 -58t-42.5 -113q0 -19 -13.5 -32.5t-33.5 -13.5q-19 -1 -32.5 12.5t-13.5 33.5v16h-71q-14 -55 -50 -97.5t-86 -66t-105 -23.5q-20 0 -41 3q-63 10 -112 48t-75.5 94.5t-22.5 120.5t37 116.5t87 84t118 33.5t119.5 -26t92 -79t44.5 -114h31
q-8 74 -52 134t-111 91q-54 25 -115 25q-89 0 -162 -51q-13 -8 -27 -8q-11 0 -20 4q-11 5 -18 15.5t-9 23.5q-1 13 4.5 24t16.5 18q52 38 120 55v247q0 20 14 33.5t33 13.5h313q16 0 29 -10.5t16 -26.5l55 -244h103v171q0 20 14 33.5t33 13.5q20 0 33.5 -13.5t13.5 -33.5
v-171l140 -1q20 2 35 -15q14 -15 12 -36l-31 -313l-3 -8v0q34 -43 34 -98zM428 177q36 21 57 57t21 78q0 43 -21 79t-57 57t-78 21t-78 -21t-57 -57t-21 -78q0 -43 21 -79t57 -57t78 -21t78 21zM360 687q4 0 6 1h254l-42 187h-228v-187zM988 174.5q18 18.5 18 44.5t-18 44
t-44 18t-44.5 -18t-18.5 -44t18.5 -44.5t44.5 -18.5t44 18.5zM317 345.5q-14 -13.5 -14 -32.5t14 -33t33 -14q20 0 33.5 14t13.5 33t-14 32.5t-33 13.5t-33 -13.5z" />
    <glyph glyph-name="uniF022" unicode="&#xf022;" horiz-adv-x="1203" 
d="M1094.5 297.5q8.5 -12.5 8.5 -27.5q0 -19 -13.5 -32.5t-33.5 -14.5h-80q-5 -53 -45.5 -89t-93.5 -36q-54 0 -94 36t-46 89h-191q-6 -53 -46 -89t-94 -36q-53 0 -93 36t-46 89h-80q-19 0 -33 14t-14 33v220q0 20 14 33.5t33 13.5h231l-153 153v-43q0 -19 -13.5 -33
t-33.5 -14q-19 0 -33 14t-14 33v137l-17 17q-14 14 -14 34t14 33.5t33 13.5t33 -14l265 -265v169q0 20 14 33.5t33 13.5q20 0 33.5 -13.5t13.5 -33.5v-235h31v110q0 32 23.5 55t55.5 23h154q31 0 55.5 -20t30.5 -51l18 -86h39q34 0 63 -17t46 -45.5t17 -62.5v-128
q14 -5 22.5 -17.5zM399.5 206q13.5 14 13.5 33q0 20 -13.5 33.5t-33.5 13.5q-19 0 -33 -14t-14 -33t14 -33t33 -14q20 0 33.5 14zM194 443v-125h55q19 29 50.5 45.5t66.5 16.5t67 -16.5t51 -45.5h86v125h-376zM811 568l-13 63h-134v-63h147zM870 206q14 14 14 33t-14 33
t-33 14t-33 -13.5t-14 -33.5q0 -19 14 -33t33 -14t33 14zM968.5 465q-9.5 9 -22.5 9h-282v-156h55q20 29 51.5 45.5t66.5 16.5t66.5 -16.5t50.5 -45.5h24v125q0 13 -9.5 22z" />
    <glyph glyph-name="uniF023" unicode="&#xf023;" 
d="M1049 376.5q-49 -69.5 -129 -98.5l-12 -50q-5 -18 -19 -29.5t-32 -10.5h-156q-23 -1 -43.5 10t-33.5 31l-24 38q-79 14 -160 44q-111 -59 -236 -73h-10q-36 0 -63 24q-10 8 -18 144t-13 325q0 42 31 70q25 24 62 24l11 -1q125 -12 236 -73q165 62 341 62q88 0 161 -37.5
t115.5 -102t42.5 -142.5q-2 -85 -51 -154.5zM194 731v-108q69 46 131 77q-63 23 -131 31zM324 362q-66 34 -130 78v-109q63 7 130 31zM894.5 369q51.5 25 81.5 67.5t30 94.5t-30 95t-81.5 68t-113.5 25q-129 -1 -252 -36.5t-231 -104.5h130q20 0 33.5 -13.5t13.5 -33.5
q0 -19 -13.5 -33t-33.5 -14h-130q109 -68 232 -104t251 -36q62 0 113.5 25z" />
    <glyph glyph-name="uniF024" unicode="&#xf024;" 
d="M1074.5 273q24.5 -30 25.5 -68t-22.5 -68t-60.5 -39q-13 -3 -26 -3q-31 0 -57.5 16t-39.5 44q-12 24 -12 49q0 24 10.5 46t29.5 38l-10 42l-136 -158q-14 -16 -35 -16h-433q-14 -29 -41 -46t-58 -17q-12 0 -24 3q-38 9 -61.5 39t-23.5 68t24 68.5t61 38.5q12 3 24 3
q31 0 58 -17t41 -46h33q-15 43 -51.5 68.5t-80.5 25.5q-17 0 -37 -5q-10 -2 -14 -2q-19 0 -32 13q-14 14 -14 34q0 8 1 12q3 12 12 21t22 12q27 8 62 8q67 0 123 -34q41 -26 69 -65.5t38 -87.5h280l167 192l-89 371h-88q-19 0 -32.5 13.5t-13.5 32.5q0 20 13.5 33.5
t32.5 13.5h125q16 0 29 -10t17 -26l133 -560v0q37 -7 61.5 -37z" />
    <glyph glyph-name="uniF025" unicode="&#xf025;" 
d="M1064 695q36 -36 36 -87v-280q0 -45 -32 -77t-77 -32q-46 0 -78 32t-32 77v16h-47q-67 1 -137 17q-50 13 -97 14q-47 -1 -97 -14q-70 -16 -137 -17h-47v-16q0 -45 -32 -77t-78 -32q-45 0 -77 32t-32 77v297q0 52 36.5 88.5t88.5 36.5t88.5 -36.5t36.5 -88.5v-31h500v14
q0 25 9.5 48t28.5 41q38 36 90 36q50 -2 86 -38zM220.5 317q4.5 4 4.5 11v43l-31 31v-74q0 -7 4.5 -11t10.5 -4q7 0 11.5 4zM553 465v35h-250q-19 0 -33 14t-14 33v78q0 13 -9 22t-22 9t-22 -9t-9 -22v-96q9 -4 17 -11l80 -80h75q53 0 118 15q43 10 69 12zM834 438h75l80 79
q7 7 17 12v79q0 13 -8.5 22t-21.5 9h-3q-11 0 -20 -9t-9 -22v-61q0 -19 -13.5 -33t-33.5 -14h-250v-35q26 -2 69 -12v0q65 -15 118 -15zM1001.5 317q4.5 4 4.5 11v74l-31 -31v-43q0 -7 4.5 -11t11.5 -4q6 0 10.5 4z" />
    <glyph glyph-name="uniF026" unicode="&#xf026;" horiz-adv-x="1169" 
d="M313.5 526.5q36.5 -36.5 36.5 -88.5v-313q0 -52 -36.5 -88.5t-88.5 -36.5t-88.5 36.5t-36.5 88.5v313q0 52 36.5 88.5t88.5 36.5t88.5 -36.5zM247 460q-9 9 -22 9t-22 -9t-9 -22v-313q0 -13 9 -22t22 -9t22 9t9 22v313q0 13 -9 22zM1032.5 526.5q36.5 -36.5 36.5 -88.5
v-313q0 -52 -36.5 -88.5t-88.5 -36.5t-88.5 36.5t-36.5 88.5v313q0 52 36.5 88.5t88.5 36.5t88.5 -36.5zM966 460q-9 9 -22 9t-22 -9t-9 -22v-313q0 -13 9 -22t22 -9t22 9t9 22v313q0 13 -9 22zM865.5 573q-35.5 -21 -56.5 -57t-21 -78v-297q0 -19 -13.5 -33t-33.5 -14h-313
q-19 0 -33 14t-14 33v297q0 42 -21 78t-57 57t-78 21q-19 0 -33 14t-14 33q0 20 14 33.5t33 13.5q68 0 125.5 -34t91 -91t33.5 -125v-94h63v562h-141q-19 0 -33 14t-14 33q0 20 14 33.5t33 13.5h375q20 0 33.5 -13.5t13.5 -33.5q0 -19 -13.5 -33t-33.5 -14h-141v-562h63v94
q0 68 33.5 125t91 91t125.5 34q20 0 33.5 -13.5t13.5 -33.5q0 -19 -13.5 -33t-33.5 -14q-43 0 -78.5 -21zM694 250h-66q-4 -14 -16.5 -22.5t-27.5 -8.5q-14 0 -26.5 8.5t-17.5 22.5h-65v-62h219v62z" />
    <glyph glyph-name="u1F687" unicode="&#xf027;" horiz-adv-x="1169" 
d="M1023 722q-46 97 -128 165.5t-187 96.5q-60 16 -123 16q-129 0 -243 -65t-179 -180q-63 -112 -63 -239q0 -97 37.5 -187t108.5 -159q14 -14 33 -14t33 14q13 13 13 33q0 21 -14 34q-56 55 -87 128t-30 151q0 87 37 165.5t102.5 134t150.5 78.5q48 13 100 13
q104 0 195.5 -53t144.5 -145q51 -90 51 -192q0 -78 -30.5 -150.5t-87.5 -129.5q-13 -13 -13 -33t13 -34q13 -13 33 -13t33 13q70 67 108 157t38 189q0 109 -46 206zM822 287q28 31 28 72v313q0 45 -32 77t-77 32h-313q-45 0 -77 -32t-32 -77v-313q0 -45 32 -77t77 -32h18
l-91 -182q-5 -12 -5 -21q0 -13 7 -24t19 -18q12 -5 21 -5q13 0 24 7t18 19l112 224h98l31 -62h-96q-19 0 -32.5 -13.5t-13.5 -33.5t13.5 -33.5t32.5 -13.5h143l34 -68q7 -12 18 -19t24 -7q9 0 21 5q12 7 19 18t7 24q0 9 -5 21l-92 183q41 5 69 36zM756 500h-343v125h343
v-125zM417 348.5q-4 4.5 -4 10.5v47h343v-47q0 -6 -4.5 -10.5t-11.5 -4.5h-312q-7 0 -11 4.5z" />
    <glyph glyph-name="u1F489" unicode="&#xf028;" horiz-adv-x="1199" 
d="M1100 738q0 -19 -14 -33t-34 -14q-19 0 -32 13l-10 10l-106 -106l53 -53q13 -13 13 -32q0 -20 -14 -34t-33 -14q-18 0 -33 13l-10 10l-355 -355q-13 -13 -33 -13q-7 0 -11 1l-147 37l-154 -154q-14 -14 -34 -14q-8 0 -12 1q-12 3 -21 12t-12 21q-1 4 -1 12q0 20 14 34
l154 154l-37 147q-1 4 -1 11q0 20 13 33l355 356l-10 10q-13 13 -13 33t14 33q14 14 33 14t33 -14l53 -53l106 106l-10 10q-13 15 -13 32q0 18 14 34q14 14 33 14t33 -14l215 -215v-1q14 -14 14 -32zM665 714l-85 -85l32 -31q13 -15 13 -33q0 -19 -14 -33q-13 -13 -33 -13
q-19 0 -33 13l-31 31l-64 -63l32 -32q14 -14 14 -32q0 -19 -14 -33t-34 -14q-19 0 -32 13l-32 32l-56 -56l30 -120l120 -30l336 337zM880 844l-106 -106l64 -64l106 106z" />
    <glyph glyph-name="uniF029" unicode="&#xf029;" horiz-adv-x="1169" 
d="M898 566q59 -28 101.5 -78t59.5 -114q10 -37 10 -77q0 -79 -39.5 -148t-108.5 -109q-70 -40 -149 -40q-58 0 -113 22.5t-97 64.5q-38 -42 -89.5 -64.5t-107.5 -22.5q-48 0 -95 18q-77 29 -123.5 97t-46.5 151v437q0 72 36 133t97 97t133 36t133 -36t97 -97t36 -133
l-1 -145q66 36 141 36q67 0 126 -28zM445 113q37 19 61 53q-31 61 -31 131q0 74 36 140h-208q-19 0 -32.5 13.5t-13.5 33.5q-1 19 12.5 33t33.5 14h231h4v172q0 47 -23 86.5t-62.5 62.5t-86.5 23t-86.5 -23t-62.5 -62.5t-23 -86.5v-437q0 -47 23 -86.5t62.5 -62.5t86.5 -23
q42 0 79 19zM873.5 121.5q46.5 27.5 74 74t27.5 101.5t-27.5 101.5t-74 74t-101.5 27.5t-101.5 -27.5t-74 -74t-27.5 -101.5t27.5 -101.5t74 -74t101.5 -27.5t101.5 27.5zM839 410q-20 0 -34 -14l-132 -132q-13 -13 -13 -33t13 -33q14 -14 34 -14q17 0 32 13l133 133
q14 14 14 33t-14 33q-13 14 -33 14z" />
    <glyph glyph-name="u1F52C" unicode="&#xf030;" horiz-adv-x="919" 
d="M805.5 80.5q13.5 -13.5 13.5 -33.5q0 -19 -13.5 -33t-33.5 -14h-500q-19 0 -33 14t-14 33q0 20 14 33.5t33 13.5h119q-66 31 -111 94h-133q-19 -1 -33 12.5t-14 33.5t14 33.5t33 13.5h344q19 0 32.5 -13.5t14.5 -33.5q0 -19 -13.5 -32.5t-33.5 -13.5h-77q49 -32 109 -32
q42 0 80.5 16.5t67.5 48.5q27 29 40.5 65t13.5 74q0 65 -39 119q-28 -11 -56 -11q-50 0 -89 30l-25 -93q-4 -15 -17 -25t-29 -10q-7 0 -11 1l-181 48q-16 4 -25.5 17t-9.5 29q0 4 2 12l111 421q4 16 17 25.5t29 9.5q7 0 11 -1l46 -12l12 45q3 12 12 21t21 13q4 1 11 1
q19 0 34 -13q14 -14 14 -33q0 -5 -2 -13l-12 -45l46 -12q19 -5 28 -22q7 -10 7 -23q0 -4 -2 -12l-12 -47l15 1q44 0 81.5 -22.5t57.5 -60.5q18 -34 18 -73q0 -47 -28 -89q29 -38 44 -83.5t15 -93.5q0 -32 -8 -69q-16 -64 -57 -115.5t-100 -80.5h118q20 0 33.5 -13.5z
M475 625q0 47 26 85v4l24 91l-45 12v0l-45 12l-88 -331l91 -24l38 144zM587 581q18 -18 44 -18q26 -1 44.5 17.5t18.5 44.5t-18.5 44t-44.5 19q-26 0 -44 -18.5t-18 -44.5t18 -44z" />
    <glyph glyph-name="uniF031" unicode="&#xf031;" horiz-adv-x="919" 
d="M618.5 361.5q-13.5 13.5 -33.5 13.5h-78l-1 78q1 19 -12.5 33t-33.5 14q-19 0 -33 -13.5t-14 -33.5v-78h-78q-19 0 -33 -13.5t-14 -33.5q0 -19 14 -33t33 -14h78v-78q0 -19 14 -33t33 -14q20 0 33.5 14t13.5 33v78h78q20 0 33.5 14t13.5 33q0 20 -13.5 33.5zM818 494
q0 2 -2 6q0 2 -1 2l-3 7l-1 1l-6 8l-170 170h12q19 -1 33 12.5t14 33.5v157q0 45 -32 77t-77 32h-250q-46 0 -78 -32t-32 -77v-157q0 -19 13.5 -32.5t33.5 -13.5h12l-170 -170q-14 -14 -14 -34v-343q0 -38 19 -70.5t51.5 -51.5t70.5 -19h437q38 0 70.5 19t51.5 51.5t19 70.5
v343q0 7 -1 10zM323.5 901.5q4.5 4.5 11.5 4.5h250q6 0 10.5 -4.5t4.5 -10.5v-110h-281v110q0 6 4.5 10.5zM711.5 108q-13.5 -14 -33.5 -14h-437q-19 0 -33 14t-14 33v324l174 174q14 14 14 33v16h156v-16q0 -19 14 -33l107 -108h-43q-19 0 -33 -13.5t-14 -33.5
q0 -19 13.5 -32.5t33.5 -13.5h109v-297q0 -19 -13.5 -33z" />
    <glyph glyph-name="uniF032" unicode="&#xf032;" horiz-adv-x="1075" 
d="M492.5 986.5q13.5 -13.5 13.5 -33.5q0 -14 -8.5 -26t-22.5 -17v-738q0 -46 -23.5 -85.5t-63 -63t-85.5 -23.5q-47 0 -86.5 23.5t-62.5 63t-23 85.5v738q-14 5 -22.5 17t-8.5 26q0 20 14 33.5t33 13.5h312q20 0 33.5 -13.5zM225 907v-126h47q20 0 33.5 -13t13.5 -32
q0 -20 -14 -34t-33 -14h-47v-125h155v344h-155zM358 116.5q22 22.5 22 55.5v297h-155v-125h47q19 0 33 -14t14 -34q0 -19 -13.5 -32.5t-33.5 -13.5h-47v-78q0 -32 23 -55t55 -23q33 0 55 22.5zM966 926.5q-9 -12.5 -23 -16.5v-738q0 -46 -23 -85.5t-62.5 -63t-85.5 -23.5
t-85.5 23.5t-63 63t-23.5 85.5v738q-14 5 -22.5 17t-8.5 26q0 19 13.5 33t32.5 14h313q20 0 33.5 -13.5t13.5 -33.5q0 -14 -9 -26.5zM694 907v-126h47q19 0 33 -13t14 -32t-14 -33.5t-33 -14.5h-47v-125h47q19 0 33 -14t14 -33t-14 -33t-33 -14h-47v-125h156v563h-156z
M827 117q23 23 23 55v78h-156v-78q0 -32 23 -55t55 -23t55 23z" />
    <glyph glyph-name="uniF033" unicode="&#xf033;" horiz-adv-x="1043" 
d="M643.5 392.5q-64.5 -35.5 -137.5 -45.5v-85q24 -4 35 -7q91 -24 158 -89.5t93 -154.5q-54 58 -123 97t-147 55l-16 3v-72h109q20 0 33.5 -13.5t13.5 -33.5q0 -19 -13.5 -33t-33.5 -14h-312q-19 0 -33 14t-14 33q0 20 14 33.5t33 13.5h109v87q-76 11 -141 40
q-36 16 -58.5 49.5t-24.5 73.5q-4 47 25 90q-47 37 -76 89.5t-37 112.5q-2 21 12 36q13 14 35 16h625q17 0 30 -11.5t16 -28.5q36 54 31 118q-4 49 -38.5 84t-84.5 39q-38 3 -73 -12.5t-58 -45.5l-16 -17q-26 -30 -48 -48t-46 -18q-13 0 -25 6q-16 8 -25 24t-9 34l1 10
q5 37 41.5 65.5t87.5 54.5q73 41 154 41q19 0 29 -1q54 -5 99.5 -34.5t73 -75.5t31.5 -101q5 -94 -47 -173.5t-141 -113.5q-47 -56 -111.5 -91.5zM267 512.5q41 -35.5 92 -55t100 -19.5t100.5 19.5t92 55t59.5 81.5h-504q19 -46 60 -81.5zM412 277v70q-62 9 -119 36
q-13 -15 -12 -33q1 -14 9 -26t21 -19q46 -20 101 -28z" />
    <glyph glyph-name="u1F6BD" unicode="&#xf034;" 
d="M1075 770q25 -56 25 -117v-306q0 -61 -25 -117t-71 -96q-39 -34 -87.5 -52.5t-100.5 -18.5q-12 0 -34 2q-268 35 -509 156q-80 40 -126.5 115.5t-46.5 163.5t46.5 163.5t126.5 115.5q241 121 509 156q24 2 35 2q51 0 99.5 -18.5t87.5 -52.5q46 -40 71 -96zM519 395
l146 -35q38 -13 80 -13q10 0 32 2q37 9 57 53t20 98t-20 98t-57 53q-22 2 -32 2q-42 0 -80 -13l-146 -35q-53 -12 -94.5 -19t-81.5 -7q-72 0 -124 24q-25 -47 -25 -103q0 -54 25 -103q40 18 79 22q-7 31 -9 65q-1 20 12.5 34t32.5 15q20 1 34 -12.5t15 -32.5q2 -37 13 -70
q61 -7 123 -23zM989.5 731q-16.5 37 -47.5 64q-26 23 -59.5 35.5t-68.5 12.5q-14 0 -21 -1q-251 -33 -479 -147q-16 -8 -28 -16q29 -6 59 -6q62 0 152 23l146 35q51 16 101 16q25 0 55 -5q67 -16 107.5 -82t40.5 -160t-40.5 -160t-107.5 -82q-24 -6 -50 -6q-59 3 -106 17
l-146 35q-90 23 -152 23q-30 0 -59 -6q12 -8 28 -16q228 -114 479 -147q7 -1 21 -1q35 0 68.5 12.5t59.5 35.5q31 27 47.5 64t16.5 78v306q0 41 -16.5 78z" />
    <glyph glyph-name="uniF035" unicode="&#xf035;" horiz-adv-x="1196" 
d="M554 515q13 0 22 9t9 22t-9 22t-22 9t-22 -9t-9 -22t9 -22t22 -9zM642 427q-13 0 -22 9t-9 22t9 22t22 9t22 -9t9 -22t-9 -22t-22 -9zM466 489q13 0 22 -9t9 -22t-9 -22t-22 -9t-22 9t-9 22t9 22t22 9zM554 339q-13 0 -22 9q-9 8 -9 22q0 13 9 22t22 9t22 -9t9 -22
q0 -14 -9 -22q-9 -9 -22 -9zM642 603q-13 0 -22 9t-9 22t9 22t22 9t22 -9t9 -22t-9 -22t-22 -9zM730 515q-13 0 -22 9t-9 22t9 22t22 9t22 -9t9 -22t-9 -22t-22 -9zM1083 633q13 13 13 33q0 8 -3 17q-41 109 -123 191t-191 123q-9 3 -17 3q-20 0 -33 -13l-131 -132l-131 132
q-13 13 -33 13q-9 0 -18 -3q-108 -41 -190 -123t-123 -191q-3 -9 -3 -17q0 -20 13 -33l131 -131l-131 -131q-13 -13 -13 -33q0 -9 3 -18q41 -108 123 -190t190 -123q9 -3 18 -3q20 0 33 13l131 131l131 -131q13 -13 33 -13q8 0 17 3q109 41 191 123t123 190q3 9 3 18
q0 19 -14 33l-131 131zM292.5 808q57.5 57 130.5 90l109 -109l-222 -221l-108 109q33 74 90.5 131zM292.5 196.5q-57.5 57.5 -90.5 130.5l571 571q74 -33 131 -90t90 -131l-571 -571q-73 33 -130.5 90.5zM904 196q-57 -57 -131 -90l-109 108l221 222l109 -109
q-33 -74 -90 -131z" />
    <glyph glyph-name="uniF036" unicode="&#xf036;" horiz-adv-x="935" 
d="M693 17q40 47 74 98q28 37 48 83q20 57 20 113q0 108 -64 196q-66 92 -166 150l13 14q39 39 50 97q3 23 -14 39q-36 35 -83 67q-33 22 -69 53q-25 25 -41 51q-7 11 -18 18t-24 6q-14 0 -25 -7t-16 -19q-5 -9 -5 -22q0 -15 8 -26q25 -39 57 -68q34 -32 79 -63
q39 -28 50 -37q-10 -17 -21 -29q-20 -23 -51 -41q-11 -7 -16.5 -18t-4.5 -24t7.5 -23.5t17.5 -16.5q118 -52 194 -154q48 -63 48 -143q0 -41 -13 -77q-15 -34 -38 -65q-37 -53 -70 -92q-10 -13 -10 -30q0 -12 4 -20q6 -13 17.5 -20t25.5 -7q22 0 36 17zM113.5 35.5
q-13.5 13.5 -13.5 32.5q-5 114 93 236l18 22q30 32 52 75q14 31 14 68q0 46 -18.5 93.5t-56.5 122.5q-34 62 -61 137q-3 8 -3 16q0 19 12 31q16 16 36 16q6 0 10 -1q12 -3 21.5 -12t12.5 -21q26 -69 56 -124q41 -79 63 -137.5t22 -119.5q0 -53 -22 -106q-26 -55 -66 -98
l-17 -21q-76 -96 -73 -174q1 -20 -12.5 -34t-32.5 -15h-2q-19 0 -32.5 13.5zM432 313q0 17 9 32q8 14 22.5 22t31.5 8q6 0 16 -2q20 -6 33 -22.5t13 -38.5q0 22 13 38.5t33 22.5q10 2 16 2q17 0 31.5 -8t22.5 -22q9 -15 9 -32q0 -25 -17 -44l-108 -113l-108 113
q-17 19 -17 44z" />
    <glyph glyph-name="uniF037" unicode="&#xf037;" horiz-adv-x="857" 
d="M269.5 545q13.5 -14 33.5 -14h79v-78q-1 -19 12.5 -33t33.5 -14t33.5 14t13.5 33v78h78q20 0 33.5 14t13.5 33q0 20 -13.5 33.5t-33.5 13.5h-78v78q0 20 -13.5 33.5t-33.5 13.5q-19 0 -32.5 -13.5t-13.5 -33.5v-78h-79q-19 0 -32.5 -13.5t-13.5 -33.5q-1 -19 12.5 -33z
M725 968q-32 32 -78 32h-437q-46 0 -78 -32t-32 -77v-782q0 -45 32 -77t78 -32h437q46 0 78 32t32 77l-1 782q1 45 -31 77zM198.5 901.5q4.5 4.5 11.5 4.5h78q0 -13 9 -22t22 -9h219q13 0 22 9t9 22h78q7 0 11.5 -4.5t4.5 -10.5v-610h-469v610q0 6 4.5 10.5zM658.5 98.5
q-4.5 -4.5 -11.5 -4.5h-437q-7 0 -11.5 4.5t-4.5 10.5v79h188v-16q-1 -19 12.5 -33t33.5 -14t33.5 14t13.5 33v16h188v-79q0 -6 -4.5 -10.5z" />
    <glyph glyph-name="uniF038" unicode="&#xf038;" horiz-adv-x="1152" 
d="M328 379q-2 -3 -10 -19l-1 -7q59 64 131 133l31 31l63 63q19 44 19 88l11 146l3 53q-11 10 -17.5 25t-6.5 31q0 32 23 55t55 23t55 -23t23 -55q0 -21 -10.5 -38.5t-28.5 -28.5l-3 -48l-7 -104q63 69 115 137q-3 11 -3 20q0 33 23.5 56.5t55.5 23.5q33 0 56.5 -23.5
t23.5 -56.5q0 -32 -23.5 -55.5t-56.5 -23.5h-1h-2q-51 -65 -113 -135l33 7q68 15 131 36q7 27 28 44t48 17q32 0 55.5 -23t23.5 -55t-23.5 -55.5t-55.5 -23.5v0q-19 0 -38 11q-71 -27 -148 -42q-77 -17 -116 -31q-70 -25 -120 -75l-36 -36q17 13 48 31q89 51 193 51
q36 -1 68.5 -17.5t54.5 -45.5q30 -43 30 -96q0 -26 -7 -47q-19 -69 -77.5 -111t-129.5 -38q-40 0 -76 10q-75 18 -143 64q-32 26 -73 29q-33 -9 -76 -30q-72 -84 -131 -195q-6 -12 -17 -19t-24 -7q-19 0 -33 14t-14 33q0 14 5 21q11 24 31 57q28 43 52 98q20 56 26 123l-1 1
q-16 50 -51 103q-35 57 -52.5 97.5t-17.5 85.5q4 76 44 140.5t105 103.5q37 22 82 22q50 0 93 -29q24 -17 39 -43t17 -55q3 -25 3 -51q0 -58 -17.5 -113.5t-50.5 -104.5q-17 -26 -38 -53q-24 -29 -49 -71zM228 536q4 59 11 100q3 16 16 27t30 11q20 0 33.5 -13.5t13.5 -33.5
q0 -6 -1 -9q-7 -42 -9 -84l15 21q53 76 53 169q0 11 -2 33q-4 28 -16 35q-17 13 -41 13q-23 0 -38 -11q-42 -26 -68.5 -69t-30.5 -92q4 -52 34 -97zM607 369l16 -2l44 -3q19 -1 31.5 -14.5t12.5 -32.5v-3q-1 -19 -15.5 -32t-33.5 -12l-47 4q-9 1 -21 2t-28 1q39 -19 76 -28
q30 -7 53 -7q42 0 74 19t43 60q3 11 3 22q0 23 -12 42q-9 12 -22.5 18.5t-28.5 5.5q-79 -2 -144 -40h-1z" />
    <glyph glyph-name="uniF039" unicode="&#xf039;" horiz-adv-x="1012" 
d="M523.5 736.5q-13.5 13.5 -32.5 13.5h-47v47q0 19 -14 33t-34 14q-19 0 -32.5 -14t-13.5 -33v-47h-47q-19 0 -33 -13.5t-14 -32.5q0 -20 13.5 -33.5t33.5 -13.5h47v-48q0 -19 13.5 -33t32.5 -14q20 0 34 14t14 33v48h47q19 0 32.5 13.5t13.5 33.5q0 19 -13.5 32.5z
M912.5 709q-0.5 2 -0.5 4l-2 6q0 2 -1 3l-3 6l-1 1l-6 7l-250 251l-7 6l-2 1l-6 3q-2 0 -3 1l-6 1q-3 1 -9 1h-469q-19 0 -33 -13.5t-14 -33.5v-906q0 -19 14 -33t33 -14h718q20 0 33.5 13.5t13.5 33.5v657q1 3 0.5 5zM753 750h-91v91zM193 93v814h376v-203
q0 -20 13.5 -33.5t33.5 -13.5h203v-564h-626zM270 455.5q14 13.5 33 13.5h406q20 0 34 -14t14 -33t-14 -33t-34 -14h-406q-19 0 -33 14t-14 33q0 20 14 33.5zM617 299q14 -14 14 -33t-13.5 -33t-33.5 -14h-281q-19 0 -33 14t-14 33t14 33t33 14h281q19 0 33 -14z" />
    <glyph glyph-name="uniF040" unicode="&#xf040;" horiz-adv-x="1169" 
d="M711.5 392.5q13.5 -13.5 13.5 -33.5q0 -19 -13.5 -32.5t-33.5 -13.5h-47v-47q0 -19 -13.5 -33t-33.5 -14q-19 0 -32.5 13.5t-13.5 33.5v47h-47q-19 -1 -33 12.5t-14 33.5t14 33.5t33 13.5h47v47q-1 19 12.5 33t33.5 14t33.5 -13.5t13.5 -33.5v-47h47q20 0 33.5 -13.5z
M1067 443v-1q-19 -92 -76 -166t-141 -115v-114q0 -19 -13.5 -33t-33.5 -14h-437q-19 0 -33 14t-14 33v114q-84 41 -141 115t-77 166v1q-1 3 -1 10v94q0 45 32 77t77 32h414l236 325q14 19 37 19q13 0 23 -6l102 -54q11 -7 17.5 -18t6.5 -24q0 -11 -4 -19l-102 -223h20
q46 0 78 -32t32 -77v-94q0 -4 -2 -10zM836 656l101 222l-26 14l-172 -236h97zM868 283q60 50 89 123h-185q-19 0 -33 14t-14 33q0 20 14 33.5t33 13.5h203v47q0 7 -4.5 11.5t-11.5 4.5h-750q-6 0 -10.5 -4.5t-4.5 -11.5v-47h203q20 0 33.5 -13.5t13.5 -33.5q0 -19 -13.5 -33
t-33.5 -14h-186q29 -73 89.5 -123t137.5 -65q13 -3 22 -11.5t13 -20.5q3 -7 3 -15q0 -16 -13 -31q-15 -15 -34 -15q-7 0 -11 1l-5 1v-33h343v34l-5 -2q-4 -1 -10 -1q-18 0 -31.5 12t-15.5 30t8.5 32.5t28.5 18.5q77 15 137 65z" />
    <glyph glyph-name="uniF041" unicode="&#xf041;" horiz-adv-x="1012" 
d="M648.5 764q13.5 14 13.5 33q0 20 -13.5 33.5t-33.5 13.5h-218q-19 0 -33 -13.5t-14 -33.5q0 -19 14 -33t33 -14h218q20 0 33.5 14zM621.5 341.5q-25.5 -36.5 -66.5 -51.5q-24 -9 -49 -9q-30 0 -58.5 13t-48.5 36q-33 39 -33 92q0 38 17 68l82 147q6 11 17 18t24 7t24 -7
t17 -18l82 -147q18 -31 18 -68q0 -44 -25.5 -80.5zM465 445q-6 -10 -6 -23q0 -19 14 -33t33 -14q20 0 33.5 14t13.5 33q0 13 -6 23l-41 73zM875.5 963.5q-36.5 36.5 -88.5 36.5h-562q-52 0 -88.5 -36.5t-36.5 -88.5v-625q0 -43 26 -76.5t68 -44.5v-20q-1 -19 12.5 -32.5
t33.5 -13.5q19 -1 33 12.5t14 33.5v16h94v-16q0 -19 13.5 -32.5t33.5 -13.5h31v-16q0 -19 14 -33t33 -14q20 0 33.5 14t13.5 33v16h31q19 -1 33 12.5t14 33.5v16h156q52 0 88.5 36.5t36.5 88.5v625q0 52 -36.5 88.5zM740 500q-19 0 -32.5 -13.5t-13.5 -33.5q-1 -19 12.5 -33
t33.5 -14h79v-156q0 -13 -9.5 -22t-22.5 -9h-203q-19 0 -33 -13.5t-14 -33.5v-16h-62v16q0 20 -13.5 33.5t-33.5 13.5h-203q-13 0 -22 9t-9 22v156h78q19 0 32.5 13.5t13.5 33.5q1 19 -12.5 33t-33.5 14h-78v375q-1 13 8.5 22t22.5 9h562q13 0 22.5 -9t9.5 -22v-375h-79z
" />
    <glyph glyph-name="uniF042" unicode="&#xf042;" horiz-adv-x="1092" 
d="M992 347q0 -28 -12 -54t-35 -44l-215 -173q-59 -48 -134 -48h-268l-23 -18q-11 -10 -30 -10q-8 0 -17 3q-64 26 -106 80t-51 122q-2 11 2 22.5t14 19.5l150 128l14 11q-17 49 -17 99q0 87 46 158l211 335q7 10 17.5 16t22.5 6t22.5 -6t17.5 -16l211 -335q46 -74 46 -159
l-1 -11h22q25 -3 47 -15.5t38 -31.5q28 -34 28 -79zM366 428q32 8 71 10h155q33 -1 62 -17.5t46 -44.5l53 42q11 35 11 67q0 59 -31 108l-172 272l-172 -272q-31 -51 -31 -109q0 -27 8 -56zM898 348q0 5 -1 8q-3 10 -10.5 16t-17.5 8h-3q-11 0 -21 -7l-139 -113
q-16 -33 -46.5 -52.5t-67.5 -19.5h-140q-19 -1 -33 12.5t-14 33.5t14 33.5t33 13.5h140q10 0 17.5 5.5t11.5 13.5q0 2 2 6l1 6q0 14 -9 23t-23 9h-155q-30 0 -58.5 -10.5t-50.5 -29.5l-130 -111q9 -29 27.5 -52.5t44.5 -38.5l12 10q13 10 29 10h285q42 0 75 27l215 173v0
q12 9 12 26z" />
    <glyph glyph-name="u1F9E0" unicode="&#xf043;" horiz-adv-x="1204" 
d="M1093 611.5q11 -29.5 11 -62.5q0 -40 -18 -70q9 -27 9 -57q0 -17 -3 -34q-8 -30 -27.5 -53t-47.5 -35q-9 -54 -46 -95q-21 -23 -49 -35.5t-59 -13.5h-5l-14 1q2 -40 2 -61q2 -18 -13 -33q-14 -14 -33 -14v0q-19 0 -33 14t-14 33q-2 63 -7 114q-6 5 -11 11q-46 55 -66 127
l-4 -2q-19 -5 -32 -4q66 -120 75 -260q1 -19 -11.5 -33.5t-31.5 -16.5h-3q-19 0 -32.5 12.5t-14.5 31.5q-5 77 -31.5 149t-72.5 134q-18 4 -41 16q-28 17 -50 39q-32 38 -42 83v1q-10 2 -24.5 3.5t-22.5 2.5q-10 2 -34 4q-70 8 -124 43q-35 22 -54.5 57.5t-18.5 75.5
q1 30 13.5 57t34.5 46q20 16 44 26q25 45 69.5 70.5t95.5 25.5q33 44 84 58q23 6 44 6q39 0 73 -18q35 13 75 13q50 0 98 -23q13 -6 30 -21q7 1 22 1q26 0 46 -4q42 -9 76.5 -32.5t56.5 -58.5q16 -28 19 -54q45 -15 72 -56q13 -23 13 -52q0 -10 -1 -15q17 -12 28 -41.5z
M920 300q-18 7 -33 21q-9 -1 -26 -1q-47 0 -88 16q14 -30 34 -55q21 -28 54 -31q25 0 41 19v0q11 13 18 31zM1002 420q0 17 -9 30.5t-24 21.5q-22 15 -51 15q-15 0 -27 -4q-10 -2 -14 -2q-15 0 -27 8.5t-17 23.5q-2 5 -2 15q0 15 8.5 27.5t22.5 16.5q29 8 56 8q45 0 85 -20
q5 12 5 22q0 14 -8 27q-7 8 -17 26q-2 5 -3.5 15t-3.5 14q-8 17 -28 22q-4 1 -12 1q-17 0 -30 -9t-18 -24q-4 -8 -6 -10q-13 -21 -39 -21q-15 0 -26 8v0q-17 9 -33 10h-2q-19 -1 -33 12.5t-14 33.5q0 19 13.5 33t32.5 14q24 0 45 -6l24 23q18 12 37 18q-1 6 -5 12
q-27 38 -70 47l-16 3q-19 -7 -32.5 -20.5t-18.5 -32.5q-5 -12 -15 -20.5t-23 -9.5q-13 -2 -25 3.5t-19 15.5q-9 12 -9 28q0 10 5 20q11 27 27 47q-26 10 -55 10q-28 0 -58 -11q-8 -4 -19 -4q-14 0 -25 7q-20 15 -44 15q-6 0 -18 -2q-11 -3 -19 -10q25 -21 41 -51q4 -8 4 -20
q0 -13 -7 -24.5t-19 -17.5q-9 -5 -21 -5q-13 0 -24 6.5t-17 17.5q-10 26 -34 35q-9 4 -23 4q-15 0 -25 -5q-17 -9 -28 -18q17 -14 17 -36q0 -13 -8 -26q-7 -10 -17.5 -15.5t-21.5 -5.5t-22 6q-10 5 -20 5q-5 0 -13 -2q-15 -16 -16 -35q1 -16 9 -30t22 -22q39 -22 85 -27
l32 -3l45 -6q5 11 15 22q27 27 62.5 40t73.5 10q32 40 81 60q5 2 15 2q20 0 32 -11q16 -13 16 -36q0 -6 -1 -9q-3 -13 -11.5 -22t-20.5 -13q-10 -4 -18 -12q18 -20 33 -49q4 -8 4 -19q0 -13 -7.5 -25t-20.5 -18q-8 -4 -19 -4q-13 0 -25 7.5t-18 20.5q-8 16 -23 24.5t-33 8.5
q-9 0 -14 -1q-19 -1 -35 -16q-6 -3 -6 -17q0 -3 2 -15q5 -25 20 -43q14 -14 29 -21q26 -12 59 -14l53 -6h9l3 6q4 14 16.5 22.5t26.5 8.5h1q12 0 22 -5t17 -15l8 -2q30 -1 57 -19l5 -3q35 -16 71 -16q19 0 35 4h5q13 0 23.5 -6t16.5 -16q11 -14 29 -11q21 7 26 27z" />
    <glyph glyph-name="uniF044" unicode="&#xf044;" 
d="M539 478q29 -56 30 -119v-312q0 -19 -13.5 -33t-33.5 -14q-19 0 -33 14t-14 33v312l-1 12q-8 -36 -32.5 -63.5t-58.5 -40.5q-29 -10 -60 -10q-61 0 -111 36q-65 54 -89 131q-23 65 -23 139q0 123 64 224q23 40 63 72q49 37 113 37q35 0 68 -12q47 -19 76.5 -60t31.5 -91
q-2 -62 -35 -112q-14 -21 -23 -52q52 -35 81 -91zM364 525q0 74 35 141q20 29 23 63q-2 23 -15 41.5t-34 26.5q-15 6 -31 6q-32 0 -59 -19q-25 -21 -40 -47q-49 -80 -49 -174q0 -55 18 -108q15 -51 57 -87q23 -17 53 -17q16 0 28 4q13 4 22.5 15.5t11.5 25.5q1 20 -7 42
q-13 42 -13 87zM1100 563q0 -74 -23 -139q-25 -79 -89 -131q-50 -36 -111 -36q-32 0 -59 10q-35 13 -59.5 40.5t-32.5 63.5l-1 -12v-312q0 -19 -13.5 -33t-33.5 -14q-19 0 -33 14t-14 33v312q1 63 30 119t81 91q-9 31 -23 52q-33 50 -35 112q2 50 31.5 91t76.5 61
q33 12 67 12q30 0 60 -9.5t54 -28.5q40 -32 63 -72q64 -101 64 -224zM836 525q0 -45 -13 -87q-9 -19 -7 -42q2 -14 11.5 -25.5t22.5 -15.5q12 -4 28 -4q30 0 53 17q42 36 57 87q18 53 18 109q0 93 -49 174q-18 28 -40 46q-27 19 -57 19q-16 0 -33 -6q-21 -8 -34.5 -26.5
t-14.5 -41.5q3 -34 23 -63q35 -67 35 -141z" />
    <glyph glyph-name="uniF045" unicode="&#xf045;" 
d="M1100 641q0 -45 -34 -89.5t-80 -66.5q-28 -13 -57 -24q-38 -13 -67 -29l-26 -18q-35 -28 -77 -41q-20 -4 -30 -4q-32 0 -62 19q-6 4 -9 7q-40 -38 -86 -65l-13 -9q-88 -59 -167 -136q-46 -50 -111 -58q-21 0 -40 8q-35 17 -48 49t-18 71q-7 64 -27 126q-4 14 -14 40
q-15 40 -29 98q-5 32 -5 56q0 76 35 143.5t98 109.5q71 46 154 46q28 0 55 -6q75 -20 139 -60q54 -28 95 -69l12 3l10 3q32 8 61 8l20 -1l200 -8q61 -2 87 -27.5t32 -53.5q2 -7 2 -22zM615 491q3 38 3 74q0 45 -5 98v5q-34 37 -78 59q-51 32 -112 49q-24 4 -36 4
q-55 0 -103 -31q-43 -30 -66.5 -76t-23.5 -97q0 -18 3 -38q12 -51 26 -86q10 -28 14 -43q21 -66 31 -142q6 -43 13 -47q13 1 45 32q85 84 181 147l14 9q57 31 94 83zM979.5 593.5q14.5 15.5 21.5 30t5 20.5q-13 7 -31 7l-200 7q-6 1 -17 1q-17 0 -32 -3l-15 -5h-3
q4 -56 4 -84q0 -41 -5 -91l9 -8q6 -5 16 -5q26 9 50 28q6 4 14 9.5t18 11.5q35 20 82 37q18 6 50 20v0q19 9 33.5 24.5z" />
    <glyph glyph-name="uniF046" unicode="&#xf046;" horiz-adv-x="1169" 
d="M1069 419v-311q0 -22 -11.5 -40t-31.5 -27q-16 -8 -32 -8q-27 0 -47 17q-67 55 -150 89q-47 17 -75 58t-28 91v343q-65 15 -110 68q-43 -53 -109 -68v-343q0 -50 -28.5 -91t-74.5 -58q-83 -34 -150 -89q-20 -17 -47 -17q-15 0 -33 8q-19 9 -30.5 27t-11.5 40v311
q0 93 29 174q71 204 232 288q15 8 35 8q24 0 41 -11q18 -10 28 -28.5t10 -38.5v-81q28 13 45 39.5t18 58.5v125q-1 19 12.5 33t33.5 14t33.5 -13.5t13.5 -33.5v-125q0 -31 17 -57.5t46 -40.5v81q0 20 10 38.5t28 28.5q17 11 41 11q20 0 35 -8q161 -84 232 -288
q29 -85 29 -174zM251 184l-8 4q-23 14 -23 40q0 14 6 24q14 23 40 23q12 0 24 -6q31 -18 72 -25l1 -1q18 18 18 45v123q-59 9 -117 37q-12 6 -19 17.5t-7 24.5q0 9 5 21q7 12 18 19t24 7q9 0 21 -5q38 -19 75 -26v278q-59 -39 -101.5 -96.5t-62.5 -125.5q-24 -70 -23 -143
v-273q19 14 57 38zM975 146v96l-13 -11q-11 -10 -30 -10q-8 0 -17 3q-11 5 -19 15t-10 23t3.5 24.5t15.5 18.5q27 23 45 53t24 64l1 2q0 72 -24 139q-19 67 -61.5 124.5t-101.5 96.5l-1 -496q0 -21 11.5 -37.5t31.5 -24.5q76 -29 145 -80z" />
    <glyph glyph-name="heart" unicode="&#xf047;" horiz-adv-x="1000" 
d="M896 680q0 -34 -15 -65t-42 -54q9 -36 8 -71q2 -116 -52 -218q-13 -27 -16 -33q-33 -67 -63.5 -115.5t-76 -86t-102.5 -37.5q-17 0 -34 3q-51 11 -89 38t-62 58t-54 79q-41 66 -66 129.5t-25 131.5l1 24q-23 16 -36 40t-13 52q0 8 1 12q4 43 28 86q13 25 24.5 61t11.5 69
q0 42 -22 64q-15 14 -15 34q0 9 3 16q16 46 55.5 73t87.5 27q10 0 15 -1q18 -2 30 -15q54 -58 85 -136q11 10 33 24l-20 72q-1 4 -1 12q0 16 9.5 28.5t24.5 16.5q4 2 13 2q15 0 28 -9.5t17 -24.5l16 -61l16 3l8 50q2 13 10.5 22.5t20.5 14.5q8 3 16 3q17 0 30 -11
q17 -14 17 -36l-1 -9l-8 -42q41 -14 70.5 -46.5t39.5 -75.5q-5 1 27 -7q7 -2 13 -4t11 -3q25 -6 33 -32q10 -24 10 -52zM253 560v-4q0 -7 5 -14h2q10 0 16 6q17 15 31 44l24 49q21 48 61 116q-18 81 -70 145q-19 -3 -31 -17q27 -43 27 -102q0 -79 -46 -171q-12 -22 -19 -52z
M753 489q2 36 -12 69q-7 0 -10 -2q-11 -7 -12 -17q-2 -13 -10 -23t-20 -14q-7 -3 -16 -3q-17 0 -31 11q-16 16 -16 36q0 6 1 10q5 24 18.5 45t34.5 34q30 18 64 18q13 0 27 -3q9 0 21 -5q12 19 9 36q-59 18 -91 18q-26 0 -50 -12q-29 -17 -47.5 -44.5t-23.5 -60.5
q-2 -13 -10.5 -22.5t-20.5 -13.5q-7 -3 -16 -3q-17 0 -31 12q-15 14 -15 35q0 7 1 10q9 53 40 97.5t78 71.5q38 21 78 22q-14 17 -35 22q-9 2 -26 2q-36 0 -69.5 -16t-56.5 -45q-53 -68 -91 -154q-16 -34 -25 -50q-20 -44 -56 -76q-16 -12 -32 -18v-17q0 -52 21 -104.5
t55 -107.5q37 -61 67.5 -91.5t76.5 -40.5q4 -1 12 -1q44 0 82 52t79 134l17 35q43 82 41 174z" />
    <glyph glyph-name="uniF048" unicode="&#xf048;" 
d="M1085.5 873.5q17.5 -43.5 14.5 -90.5l-9 -177q-4 -73 -12.5 -123.5t-36.5 -101t-83 -85.5q-101 -58 -217 -55q1 -51 -19.5 -97.5t-57.5 -80.5l-7 -6q-11 -9 -16.5 -14t-8.5 -7q-5 -13 -16.5 -21t-25.5 -9t-25.5 6t-18.5 20q-11 20 -27 35q-41 39 -55 96q-4 24 -4 54
q0 26 2 39v4l-20 2q-31 3 -53 10q-49 13 -87 50q-2 -1 -13 -7q-20 -8 -45 -8q-41 0 -71 23q-35 23 -53.5 60.5t-16.5 79.5q-4 128 -4 212l1 69q-3 58 15 121q42 118 199 122q62 0 139 -10q43 -6 82 -9q54 -2 80 -2q87 0 195 10l36 3q27 3 59 3q82 0 127 -40
q35 -32 52.5 -75.5zM455 355l16 -2q7 38 30.5 69t58.5 48q-5 41 -14 68q-4 12 -14 19.5t-23 7.5l-47 7q-12 1 -22 9t-15 20q-4 8 -4 18q0 16 11 29q12 18 35 18q6 0 9 -1l47 -7q40 -4 71 -30t42 -64q11 -36 15 -72q12 2 16 2q34 -2 51 -4q32 -4 50 -4q29 0 43 10
q18 20 23 48q12 82 15 166q-69 -8 -101 -10q8 -44 29 -82q7 -10 7 -24q0 -26 -23 -40q-12 -7 -24 -7q-26 0 -40 23q-35 59 -44 126h-11q-114 0 -251 15l-1 -22q0 -65 -2 -99q-2 -15 -2 -46v-16q26 -4 38 -4v0q20 0 33.5 -13.5t13.5 -32.5t-13.5 -33t-32.5 -14h-4
q-22 0 -44 3q-4 -20 -14 -41q20 -21 52 -31q26 -6 40 -7zM999 838q-9 24 -28 41q-18 16 -68 16q-17 0 -49 -2l-36 -3q-108 -11 -206 -11q-28 0 -82 2q-15 1 -34 3t-28 3l-25 3q-60 10 -126 10q-55 -1 -79 -16.5t-33 -41.5q-12 -48 -11 -93l-1 -65q0 -66 4 -174l1 -37
q1 -29 7 -42.5t20 -21.5q17 -11 28 -8q31 24 34 61q7 40 6 82q0 35 1 52q2 42 2 62l1 31v32h-3q-12 2 -22.5 9.5t-15.5 18.5q-3 9 -3 18q0 16 9 29q8 10 19 14.5t24 3.5q201 -24 335 -24q148 0 275 28q3 1 10 1q15 0 27.5 -9t17.5 -24q2 -10 2 -14q0 -14 -7.5 -26t-20.5 -17
q-3 -101 -18 -200q-9 -63 -57 -106q-39 -31 -100 -31q-13 0 -61 5l-41 3q-103 0 -107 -86l-4 -64q-2 -20 -2 -29q0 -20 3 -40q9 -29 32 -51l4 -4l6 4l3 3q24 22 36 51.5t10 62.5q-17 5 -26.5 20.5t-6.5 32.5q4 18 18 29t32 10q33 -4 71 -4q106 0 173 41q35 21 53 53.5
t24.5 74t10.5 107.5l9 177q2 26 -7 50z" />
    <glyph glyph-name="uniF049" unicode="&#xf049;" horiz-adv-x="1197" 
d="M800 44q108 68 178 175q73 94 106 207q13 42 13 90q0 85 -42 157q-59 83 -146 133q-37 24 -58.5 63t-22.5 83q0 20 -14 34q-12 14 -33 14h-129q-19 0 -32.5 -13t-14.5 -32q0 -79 14 -148q14 -68 11 -148q-7 -56 -36 -104t-75 -79q-65 -36 -138 -47q-48 -8 -99 -26
q-37 -12 -84 -42t-70 -76q-28 -65 -28 -132q0 -12 2 -34q2 -18 15 -29.5t31 -11.5h143q27 0 39 21q8 11 8 26q0 9 -3 18q-5 6 -5 18q0 9 2 13q3 9 13 11q9 0 28 -20q24 -24 35 -37q54 -66 127 -105q51 -23 107 -23q85 2 158 44zM285 259.5q-27 -18.5 -39 -48.5
q-8 -18 -10 -40h-41q3 37 17 73q38 52 101 71q49 15 88 23q89 14 168 59q65 44 105.5 110t48.5 143q2 28 2 43q0 62 -14 129q-2 18 -4 25q-6 40 -7 59h38q10 -55 41 -101t78 -77q71 -40 118 -105q28 -51 28 -108q0 -35 -10 -65q-28 -95 -91 -176q-61 -92 -149 -148
q-47 -31 -107 -31q-38 0 -71 13q-57 31 -97 84l-39 40q-17 20 -41 32.5t-50 14.5h-3v0q-33 -1 -60 -19.5z" />
    <glyph glyph-name="uniF050" unicode="&#xf050;" horiz-adv-x="930" 
d="M796 352q0 -113 -22 -219q-5 -34 -22 -64t-44 -50q-22 -14 -50 -14q-25 0 -45 10q-26 11 -40 30q-21 25 -31 56.5t-19 81.5q-7 38 -13 60q-19 70 -53 125q-32 -53 -48 -110q-5 -18 -9.5 -40t-6.5 -31q-9 -48 -17 -76t-25 -54q-18 -27 -49 -42q-25 -10 -47 -10
q-28 0 -48 14q-51 37 -63 96q-26 119 -26 238q0 52 4 95q7 92 23 198q-34 71 -43 147q-2 18 -2 27q0 62 33 108q50 73 173 73l24 -1q54 -1 107 -17t99 -45q1 -1 3 -1q33 27 72 43t76 16q24 0 40 -5q40 -13 66.5 -45.5t30.5 -74.5q6 -30 6 -58q0 -51 -14.5 -100.5
t-40.5 -108.5q12 -73 17 -158q4 -43 4 -94zM269 103.5q7 8.5 10 18.5q9 28 24 93q11 47 19.5 78t21.5 60q31 69 78 123q14 14 35 14t35 -14q73 -84 102 -189q8 -27 13 -47.5t8 -33.5q12 -56 21 -83q3 -10 10 -19t14 -6q11 4 22 49q21 101 21 205q0 21 -2 61q-3 51 -9 111
q-13 6 -21 17.5t-8 25.5q0 6 4 18l15 37q28 64 41.5 106.5t13.5 83.5q0 23 -4 40q-4 19 -10 29.5t-12 14.5t-10 6q-57 3 -99 -34q19 -28 30 -55q4 -12 4 -17q0 -19 -14 -33t-34 -14q-13 0 -24.5 7.5t-16.5 19.5q-19 50 -62 85q-73 45 -160 45q-91 4 -118 -33
q-13 -23 -13 -52q0 -13 1 -19q17 -114 83 -202q7 -11 7 -26q0 -19 -13.5 -32.5t-32.5 -13.5q-9 0 -15 3q-9 -79 -9 -124q-1 -19 -1 -58q0 -90 13 -174q6 -42 14.5 -59t13.5 -18q7 -3 14 5.5z" />
    <glyph glyph-name="uniF051" unicode="&#xf051;" horiz-adv-x="934" 
d="M796 442q4 -41 4 -94q0 -113 -22 -220q-5 -34 -22 -64t-44 -51q-22 -14 -51 -14q-25 0 -45 10q-25 11 -41 30q-21 25 -30.5 56t-18.5 81q-9 45 -14 63q-19 69 -52 125q-33 -54 -49 -110q-7 -24 -17 -74q-9 -45 -17.5 -74t-24.5 -55q-16 -27 -49 -42q-23 -10 -47 -10
q-27 0 -49 13q-24 18 -40.5 43.5t-22.5 54.5q-26 113 -26 237q0 54 4 97q6 95 23 199q-34 73 -43 148q-2 20 -2 30q0 58 32 107q52 72 172 72q18 0 27 -1q54 0 107.5 -16t100.5 -45l1 -2q34 27 73 43.5t77 16.5q21 0 41 -6q39 -13 65.5 -45.5t32.5 -73.5q5 -25 5 -58
q0 -51 -14.5 -101t-39.5 -110q11 -78 16 -160zM726 724q14 43 14 85q0 23 -4 42q-8 45 -32 49q-5 1 -14 1q-48 0 -84 -33q20 -35 29 -57q4 -8 4 -19q0 -19 -13.5 -33t-32.5 -14q-14 0 -26.5 8.5t-17.5 21.5q-20 51 -63 86q-14 10 -37 20l-64 -85l73 -97q10 -11 10 -28
q0 -9 -5 -21l-31 -63q-7 -12 -18.5 -19t-24.5 -7q-20 0 -33.5 14t-13.5 34q0 9 5 21l19 36l-77 102q-10 15 -10 28q0 15 10 28l59 79q-14 2 -22 2q-92 4 -118 -32q-13 -25 -13 -54q0 -13 1 -19q17 -112 82 -202q8 -14 8 -27q0 -19 -13.5 -33t-32.5 -14q-10 2 -16 4
q-7 -64 -9 -125q-1 -16 -1 -49q0 -89 14 -184q6 -43 14 -59.5t14 -17.5q7 -3 13.5 5t10.5 18q12 42 24 91q11 48 20 80t22 62q29 69 78 124q15 15 36 15t34 -15q75 -88 103 -191q7 -21 13 -48.5t9 -38.5q2 -10 7.5 -34.5t11.5 -43.5q4 -11 10.5 -19t13.5 -5q4 1 10.5 12
t12.5 37q21 99 21 200q0 23 -2 67q-1 48 -8 113q-13 5 -21.5 17t-8.5 26q0 5 4 17l15 38q27 61 41 104z" />
    <glyph glyph-name="u1F443" unicode="&#xf052;" horiz-adv-x="1058" 
d="M958 295q0 -16 -1 -24q-8 -42 -34 -78q-30 -42 -76.5 -66t-97.5 -23q-30 2 -54 7q-25 -37 -52 -61q-49 -47 -114 -50q-65 3 -114 50q-32 30 -52 61q-25 -6 -52 -6q-52 -1 -98.5 22.5t-77.5 65.5q-26 36 -34 78q-1 8 -1 24q0 65 39 116q26 36 67 70q57 109 96 227l11 29
q23 64 42 108q19 52 55 97q23 27 54 42t65 16q34 -1 65 -16t54 -42q36 -45 55 -97q19 -44 42 -108l11 -29q39 -118 96 -227q42 -35 67 -71q39 -49 39 -115zM843 356q-33 41 -71 69l-92 76q-17 15 -17 38q0 7 1 11q4 13 14.5 22.5t24.5 11.5q-21 52 -35 92q-27 75 -51 133
q-15 40 -40 72q-20 24 -48 25q-28 -1 -48 -25q-25 -32 -40 -72q-20 -48 -51 -133q-14 -40 -35 -92q14 -2 24.5 -11.5t14.5 -22.5q1 -4 1 -11q0 -23 -17 -38l-92 -76q-38 -28 -71 -69q-24 -30 -21 -70q3 -20 17 -39q27 -36 69 -45q-11 14 -11 31q0 16 11 30q14 16 35 16
q14 0 25 -7q55 -36 91 -95q19 -30 47 -57q20 -23 51 -26q31 3 51 26q28 27 47 57q36 59 91 95q11 7 25 7q21 0 35 -16q11 -12 11 -30q0 -19 -11 -31q42 9 69 45q14 19 17 39q3 40 -21 70z" />
    <glyph glyph-name="u1F442" unicode="&#xf053;" horiz-adv-x="918" 
d="M811.5 687q6.5 11 6.5 24q0 12 -6 22q-39 77 -100 137.5t-138 98.5q-66 31 -141 31q-54 0 -105.5 -17.5t-95.5 -50.5q-63 -48 -97.5 -118t-34.5 -147q0 -30 4 -54q22 -152 156 -313q18 -22 38 -44q50 -55 91 -118l11 -19q21 -42 51 -72q24 -23 55 -35.5t65 -11.5
q22 0 39 4q43 8 77.5 34.5t52.5 66.5q4 8 4 18q0 14 -8 26t-21 17q-8 4 -18 4q-14 0 -25.5 -8t-17.5 -21q-10 -18 -26.5 -30t-36.5 -15q-10 -3 -20 -3q-29 0 -55 21q-19 20 -35 51q-2 3 -4.5 8.5t-7.5 12.5q-42 69 -100 131q-19 20 -37 43q-117 142 -135 266q-3 20 -3 40
q0 56 24.5 106.5t69.5 84.5q65 50 146 50q52 0 101 -23q63 -32 113 -82t82 -113q7 -17 27 -23q8 -2 13 -2q13 0 23 6q12 6 18.5 17zM756 323.5q7 -11.5 7 -24.5q0 -12 -4 -20q-15 -31 -44 -50t-64 -20h-3q-35 1 -63 21.5t-41 52.5q-2 4 -10 26q-9 43 -47 67q-41 26 -68 65
t-27 80q0 31 17 59q15 26 43.5 45t73.5 19q23 0 51 -6q-25 46 -71 80q-41 28 -67 28q-12 0 -31 -7q-17 -7 -30 -20.5t-19 -31.5q-11 -27 -11 -53q0 -22 8 -44q3 -9 3 -17q0 -14 -7.5 -26t-20.5 -18q-8 -4 -19 -4q-13 0 -24.5 7t-17.5 20q-16 39 -16 82q0 45 18 87
q13 35 39 62.5t60 41.5t67 14q57 0 121 -44q76 -52 114.5 -140.5t35.5 -201.5q-1 -19 -14.5 -32t-32.5 -13h-1q-19 0 -33 14q-13 13 -13 34q2 39 -4 71q-52 24 -84 24q-27 0 -38 -18q-3 -6 -3 -12q0 -17 16.5 -36t35.5 -31q31 -19 52 -47.5t31 -64.5l10 -24q2 -6 7 -10.5
t12 -4.5q18 0 24 16q7 17 27 24q8 3 16 3q11 0 19 -4v-1q13 -6 20 -17.5z" />
    <glyph glyph-name="u1F441" unicode="&#xf054;" 
d="M1099 537v-1q-25 -110 -84.5 -196t-136 -141t-154.5 -76q-70 -19 -148 -19q-135 2 -257 61t-207 164q-1 0 -1 1l-3 4q-2 2 -2 3l-2 5l-2 4l-1 5l-1 4v6v3v1v0q12 117 65 218.5t137.5 171t185.5 92.5q64 14 122 14q99 0 192 -35t168.5 -101t123.5 -156h1q2 -5 4 -15l1 -2
q0 -10 -1 -15zM810 608q-41 8 -88 10q19 -34 19 -73q0 -40 -20.5 -76.5t-57.5 -57.5q-37 -22 -78 -22q-40 0 -75 19t-56 54q-9 12 -9 27q0 10 5 20q6 11 16.5 18t23.5 8t24 -5t18 -17q9 -13 23 -20.5t30 -7.5q12 0 23 4q18 7 28.5 23t10.5 36q0 7 -1 11q-5 22 -22.5 36
t-39.5 14l-5 1q-125 -22 -227 -92q8 -60 43.5 -108t89 -73.5t114.5 -22.5q61 4 111 36t79.5 84t29.5 113q0 31 -9 61zM368.5 687.5q-63.5 -48.5 -103.5 -116.5q69 54 150 88t168 46q48 8 108 8q82 0 163 -18q-55 35 -117 53.5t-127 18.5q-51 0 -102 -12
q-76 -19 -139.5 -67.5zM889.5 333.5q80.5 84.5 110.5 196.5q-42 30 -89 49q2 -22 2 -32q0 -80 -36.5 -150t-100 -116t-142.5 -58q-32 -4 -49 -4q-70 0 -134 28.5t-111 81t-69 120.5q-36 -39 -66 -84q88 -93 183 -130t187 -37q66 0 124 16q110 35 190.5 119.5z" />
    <glyph glyph-name="uniF055" unicode="&#xf055;" horiz-adv-x="892" 
d="M782 415q-12 -15 -32 -17l-17 -2q-41 -122 -121.5 -223t-190.5 -167q-12 -6 -24 -6t-23 6t-18 17q-6 12 -6 23q0 27 23 41q93 55 159 136q-39 58 -59.5 124.5t-20.5 135.5q0 61 17 123q-32 22 -74 48q-112 71 -182 133.5t-109 145.5q-4 9 -4 20q0 14 7 25.5t20 17.5
q8 4 19 4q14 0 25.5 -7t17.5 -20q32 -68 92.5 -121t163.5 -119q100 -63 166.5 -117t111.5 -127l17 2q19 2 34.5 -10t17.5 -32q2 -21 -10 -34zM648 434q-39 62 -97 110q-5 -25 -5 -61q0 -93 45 -176q34 59 57 127z" />
    <glyph glyph-name="uniF056" unicode="&#xf056;" horiz-adv-x="1169" 
d="M1039 308q30 -46 30 -101v-98q0 -45 -32 -77t-78 -32h-750q-45 0 -77 32t-32 77v98q0 55 30 101t80 68l117 53q47 20 81 65q-45 57 -60 125q-24 10 -40 27q-20 22 -20 51q0 7 2 17q5 18 17 32t29 21q5 64 39.5 116.5t89.5 84t119 32.5q54 -5 101 -19q29 -6 57 -6
q23 0 50 5q2 -39 -17 -73q49 -61 58 -140q17 -7 29 -21t17 -32q2 -12 2 -17q0 -29 -20 -51q-16 -17 -40 -27q-17 -70 -60 -125q29 -42 80 -66l118 -52q50 -22 80 -68zM450 605q22 -53 58 -79t76 -26q41 0 77 26t58 79t22 131q0 42 -18 78q-27 9 -71 27q-101 -54 -220 -66
q-4 -26 -4 -39q0 -78 22 -131zM960 257q-15 23 -40 34l-90 40l-20 -51q10 -20 10 -38q0 -30 -21 -53q-11 -12 -26.5 -19t-31.5 -7q-18 0 -32 7q-23 11 -36 33t-10 47q2 25 19 44t42 25l24 57q-31 21 -59 58q-50 -28 -104 -28t-105 28q-7 -10 -16 -19q43 -28 57 -78l25 -90
q2 -8 2 -13q0 -15 -9.5 -28t-24.5 -17l-30 -8q-8 -2 -14 -2q-13 0 -24.5 7.5t-16.5 19.5q-5 10 -5 20q0 24 20 38l-13 48q-4 16 -17 25t-29 9q-8 0 -12 -1q-15 -4 -24.5 -17t-9.5 -28q0 -5 2 -13l13 -48q17 -1 29 -13t14 -29t-7.5 -31t-26.5 -19l-30 -8q-8 -2 -12 -2
q-16 0 -29 9.5t-17 25.5l-25 90q-4 18 -4 27q-24 -11 -38 -33.5t-14 -48.5v-98q0 -6 4.5 -10.5t10.5 -4.5h750q7 0 11.5 4.5t4.5 10.5v98q0 27 -15 50z" />
    <glyph glyph-name="uniF057" unicode="&#xf057;" horiz-adv-x="1169" 
d="M1039 308q30 -46 30 -101v-98q0 -45 -32 -77t-78 -32h-750q-45 0 -77 32t-32 77v98q0 55 30 101t80 68l117 52q55 24 87 75l-13 18q-80 15 -147 64q33 39 59 86q22 46 30 99q5 41 21 80q32 74 102 117q54 33 118 33q62 0 114 -30q71 -42 105 -117q9 -18 14.5 -41t9.5 -45
q6 -31 11.5 -51.5t14.5 -39.5q31 -54 62 -91q-65 -48 -147 -63l-13 -19q33 -51 86 -75l118 -52q50 -22 80 -68zM460.5 605.5q26.5 -53.5 62 -79.5t61.5 -26t61.5 26t62 79.5t26.5 130.5q0 23 -4 40q-36 17 -70 42q-102 -66 -225 -75l-1 -7q0 -77 26.5 -130.5zM960 257
q-15 23 -40 34l-90 40l-20 -51q10 -20 10 -38q0 -30 -21 -53q-11 -12 -26.5 -19t-31.5 -7q-18 0 -32 7q-23 11 -36 33t-10 47q2 25 19 44t42 24l23 58q-36 27 -62 63q-47 -32 -101 -33q-53 2 -100 33q-6 -10 -19 -24q42 -28 56 -78l25 -90q2 -8 2 -13q0 -15 -9.5 -28
t-24.5 -17l-30 -8q-8 -2 -14 -2q-13 0 -24.5 7.5t-16.5 19.5q-5 10 -5 20q0 24 20 38l-13 48q-4 16 -17 25t-29 9q-8 0 -12 -1q-15 -4 -24.5 -17t-9.5 -28q0 -5 2 -13l13 -48q17 -1 29 -13t14 -29t-7.5 -31t-26.5 -19l-30 -8q-8 -2 -12 -2q-16 0 -29 9.5t-17 25.5l-25 90
q-4 18 -4 27q-24 -11 -38 -33.5t-14 -48.5v-98q0 -6 4.5 -10.5t10.5 -4.5h750q7 0 11.5 4.5t4.5 10.5v98q0 27 -15 50z" />
    <glyph glyph-name="uniF058" unicode="&#xf058;" horiz-adv-x="1201" 
d="M930.5 361.5q13.5 -13.5 13.5 -33.5q0 -19 -13.5 -33t-33.5 -14h-63q-19 0 -32.5 13.5t-13.5 33.5v94q-1 19 12.5 33t33.5 14t33.5 -13.5t13.5 -33.5v-47h16q20 0 33.5 -13.5zM974.5 554.5q64.5 -39.5 98.5 -106.5q28 -56 28 -119q0 -89 -52 -159q-37 -51 -93 -79
t-119 -28q-26 0 -47 4q-22 -31 -55.5 -49t-71.5 -18h-407q-42 0 -78 21t-57 57t-21 78v688q0 42 21 78t57 57t78 21h375q44 0 87.5 -21t72 -57t28.5 -78v-251l15 1q76 0 140.5 -39.5zM694 103q-58 37 -91 95q-16 -11 -34 -11q-20 0 -39 14q-11 9 -17.5 22t-6.5 26q0 7 4 21
q6 19 22.5 31t36.5 12h1q-1 5 -1 15q0 62 27 116q-13 -6 -27 -6q-26 0 -44.5 18t-18.5 44t18.5 44.5t44.5 18.5t44 -18.5t18 -44.5v-1q39 45 94 71v274q0 13 -15 27.5t-37 24.5t-42 10h-375q-25 0 -43.5 -18t-18.5 -44v-688q0 -25 18.5 -43.5t43.5 -18.5h407q18 0 31 9z
M920.5 179q39.5 23 62.5 62.5t23 86.5t-23 86.5t-62.5 62.5t-86.5 23t-86 -23t-62 -62.5t-23 -86.5t22.5 -86.5t62 -62.5t86.5 -23t86.5 23zM524.5 794.5q-18.5 -18.5 -18.5 -44.5t18.5 -44t44.5 -18t44 18t18 44t-18 44.5t-44 18.5t-44.5 -18.5zM306 794.5
q-18 -18.5 -18 -44.5t18 -44t44 -18t44.5 18t18.5 44t-18.5 44.5t-44.5 18.5t-44 -18.5zM306 544.5q-18 -18.5 -18 -44.5t18 -44t44 -18t44.5 18t18.5 44t-18.5 44.5t-44.5 18.5t-44 -18.5zM306 294.5q-18 -18.5 -18 -44.5t18 -44t44 -18t44.5 18t18.5 44t-18.5 44.5
t-44.5 18.5t-44 -18.5z" />
    <glyph glyph-name="uniF059" unicode="&#xf059;" horiz-adv-x="1157" 
d="M720 590q-7 0 -11 4q-4 7 -4 16q0 11 6 20q46 63 114 175q13 20 37 60q7 10 7 24q0 20 -14 33.5t-34 13.5q-12 0 -22.5 -5.5t-17.5 -15.5q-21 -32 -36 -61l-29 -45q-43 -68 -78 -118q-4 -6 -10 -9.5t-12 -3.5t-14 4q-15 9 -15 25q0 6 1 9q9 30 13 39l54 192q3 6 3 13
q0 18 -12.5 32t-30.5 15t-32.5 -9t-19.5 -27l-55 -190q-7 -35 -24 -66q-24 -44 -66 -78q-40 -30 -58 -47q-7 28 -27.5 65t-49 63.5t-59.5 26.5q-17 0 -36 -11q-13 -5 -21 -17.5t-8 -26.5q0 -16 7 -26q35 -51 52 -114t17 -147q0 -28 -1 -43q-3 -55 -29.5 -102.5t-78.5 -115.5
l-17 -21q-9 -13 -9 -28q0 -19 14.5 -33.5t33.5 -14.5q22 0 37 18l17 21q54 65 97 150q22 50 27 93q3 50 15 98q15 31 34 49q15 15 35 15q19 0 34 -15q32 -32 54 -73q6 -12 17.5 -19t24.5 -7q19 0 35 13q13 16 13 34q0 13 -6 25q-39 72 -99 120l21 20q16 14 34 14q16 0 28 -9
q97 -63 146 -170q7 -14 7 -31q0 -29 -19 -49v-1l-33 -35q-48 -45 -105 -81q-5 -3 -21 -13.5t-30.5 -15t-28.5 -4.5q-13 0 -26 3q-16 4 -24 4q-25 0 -39 -22q-6 -12 -6 -24q0 -13 6.5 -24t17.5 -18l9 -4q-21 -26 -33 -49q-6 -12 -6 -24q0 -19 14.5 -33.5t33.5 -14.5
q14 0 26 8t18 21q18 36 49.5 62.5t92.5 69.5q68 42 119 91l38 40q24 32 56 56q27 21 66 35q24 11 53 26q26 14 39 20t24 12t19 10q13 6 20.5 18.5t7.5 26.5q0 5 -2 13q-4 15 -16.5 24.5t-28.5 9.5q-11 0 -21 -5l-46 -24q-59 -30 -89 -44q-8 -4 -20 -4q-24 0 -40 19
q-3 9 -3 18q0 26 18 42l189 168q9 6 13.5 16t4.5 21q0 20 -14 34t-34 14q-19 0 -33 -15l-191 -168q-11 -11 -24 -11z" />
    <glyph glyph-name="uniF060" unicode="&#xf060;" horiz-adv-x="1106" 
d="M1006 506q0 -17 -12 -31q-17 -18 -40 -38q1 1 -22 -19q-9 -10 -25 -30q-14 -20 -22 -29q-31 -33 -63 -55q-99 -72 -303 -211l-49 -33q-41 -30 -86 -46q-30 -10 -66 -10q-78 0 -139 46q-38 29 -59 72.5t-20 91.5q2 47 20.5 84.5t44 63.5t66.5 61q20 15 33 28l15 13
q58 51 94 90.5t55 85.5q4 10 16 42q12 36 20 54q20 46 50 78.5t89 84.5l105 94q13 11 29 11q20 0 33.5 -13.5t13.5 -33.5q0 -21 -14 -33l-71 -64q15 -7 32 -17l20 18q23 18 43 37q15 13 33 13q19 0 33 -14t14 -33t-15 -34q-16 -15 -48 -41q-4 -5 -14 -13l12 -20q14 12 42 34
q15 10 29 10q19 0 33 -14t14 -33q0 -11 -5 -21.5t-14 -17.5q-25 -17 -57 -46q3 -5 10 -25q30 25 32 26q11 10 29 10q20 0 33.5 -13.5t13.5 -33.5q0 -23 -19 -37q-25 -20 -54 -47q4 -10 8 -30l20 19q14 16 35 16q18 0 31 -12q16 -14 16 -35zM766 379q18 14 34 28l2 3
q16 29 16 59q0 25 -11 50q-21 62 -50 131q-23 64 -70 109q-25 20 -54 20q-13 0 -28 -5q-10 -9 -19 -19q-36 -41 -51.5 -101t-21.5 -134q-1 -36 -9 -72q-14 -63 -53 -114q-13 -19 -37 -19q-19 0 -33 14t-14 33q0 18 10 29q22 28 32 65l-67 -62l-15 -13l-35 -30
q-49 -41 -73 -70.5t-25 -69.5q-1 -25 10.5 -48t31.5 -38q35 -27 80 -27q21 0 40 6q31 11 62 34l48 33q172 115 300 208z" />
    <glyph glyph-name="u1F3E5" unicode="&#xf061;" horiz-adv-x="1169" 
d="M1055 79.5q14 -13.5 14 -32.5t-13.5 -33t-33.5 -14h-875q-19 0 -33 14t-14 33t14 32.5t33 13.5h78v816q-14 5 -22.5 17.5t-8.5 26.5q0 19 13.5 33t32.5 14h688q20 0 33.5 -13.5t13.5 -33.5q0 -14 -8.5 -26.5t-22.5 -17.5v-816h78q19 0 33 -13.5zM632 188h-95v-95h95v95z
M850 906h-531v-813h125v142q0 19 13.5 32.5t32.5 13.5h188q19 0 33 -13.5t14 -32.5v-142h125v813zM711.5 736.5q13.5 -13.5 13.5 -33.5q0 -19 -13.5 -33t-33.5 -14h-46v-47q0 -19 -14 -32.5t-34 -13.5q-19 0 -33 13.5t-14 32.5v47h-47q-19 0 -32.5 14t-13.5 33t13.5 33
t32.5 14h47v46q0 20 13.5 34t33.5 14t34 -14t14 -34v-46h46q20 0 33.5 -13.5zM725 468v-93h-93v93h93zM537 468v-93h-93v93h93z" />
    <glyph glyph-name="uniF062" unicode="&#xf062;" horiz-adv-x="1075" 
d="M949 622.5q-26 -36.5 -68 -51.5v-274q0 -81 -40 -149t-108 -108t-149 -40t-149 40t-108 108t-40 149v114q-54 13 -97 47.5t-66.5 84t-23.5 105.5v243q0 45 32 77t77 32q20 0 33.5 -13.5t13.5 -33.5q0 -19 -13.5 -33t-33.5 -14q-7 0 -11 -4.5t-4 -10.5l-1 -243
q0 -38 18 -71t49.5 -54t69.5 -23q29 -1 55.5 9.5t46.5 30.5t31.5 46.5t11.5 54.5v250q0 6 -4.5 10.5t-11.5 4.5q-19 0 -33 14t-14 33q0 20 14 33.5t33 13.5q46 0 78 -32t32 -77l-1 -250q0 -55 -23.5 -104t-66.5 -82t-97 -44v-114q0 -55 27.5 -101.5t74 -74t101.5 -27.5
t101.5 27.5t74 74t27.5 101.5v274q-42 15 -68 52t-26 81q0 11 4 31q11 48 49 78.5t87 30.5q11 0 17 -1q54 -6 89.5 -46t35.5 -94q0 -44 -26 -80.5zM867.5 670q13.5 14 13.5 33q0 20 -13.5 33.5t-33.5 13.5q-19 0 -33 -13.5t-14 -33.5q0 -19 14 -33t33 -14q20 0 33.5 14z" />
    <glyph glyph-name="uniF063" unicode="&#xf063;" horiz-adv-x="1202" 
d="M1055 752q20 0 33.5 -13.5t13.5 -33.5q0 -19 -12.5 -32.5t-31.5 -14.5l-39 -2q-8 -32 -23 -66q12 -7 27 -12q14 -5 23 -17.5t9 -27.5q0 -19 -13.5 -33t-33.5 -14q-9 0 -16 3q-22 8 -41 18q-28 -44 -43 -65l31 -26q19 -14 19 -37q0 -19 -14 -33t-33 -14q-18 0 -32 12
l-29 24q-26 -31 -70 -73l26 -45q7 -11 7 -25q0 -19 -13.5 -33t-33.5 -14q-12 0 -23 6.5t-17 17.5l-18 30q-26 -20 -72 -51l15 -42q3 -7 3 -17q0 -19 -14 -33t-33 -14q-14 0 -26.5 8.5t-17.5 22.5l-10 27q-49 -25 -96 -38v-46q0 -19 -13.5 -33t-33.5 -14v0q-19 0 -33 14
t-14 33v34q-16 0 -24 1q-22 3 -45 9q-7 -13 -11 -24q-5 -14 -17 -23.5t-28 -9.5q-19 0 -33 14t-14 33q0 4 2 14q9 24 19 41q-19 17 -34 41l-22 -5l-10 -1q-19 1 -32.5 14.5t-13.5 32.5q0 17 10.5 29.5t26.5 16.5l21 5q6 33 26 62l-23 16q-21 15 -21 39q0 20 14 33.5t33 13.5
q13 0 24 -6q19 -12 40 -30l28 21l21 16q4 2 6 4t4 3l-22 17q-17 14 -17 37q0 20 14 33.5t33 13.5q16 0 28 -9l37 -29q39 36 85 87l-31 25q-18 14 -18 37q0 20 14 33.5t33 13.5q14 0 29 -10l34 -27q8 9 22 27q40 50 65 76l-26 24q-14 14 -14 34t14 33.5t33 13.5t32 -13
l28 -26q41 34 76 55q-5 17 -9 55v3q0 19 13 32.5t32 14.5t33 -12t16 -32l3 -26q15 3 29 3q9 0 25 -2q19 -3 37 -12l24 24q14 12 32 12q19 0 33 -14t14 -33q0 -21 -16 -35q-14 -12 -22 -23q22 -46 25 -93l25 1h2zM738.5 384.5q83.5 84.5 142.5 188.5q44 67 53 145q1 5 1 15
q0 39 -19 74q-4 10 -12.5 17t-18.5 8q-2 1 -8 1q-25 0 -61.5 -20t-77.5 -56q-61 -55 -113 -124l-34 -42q-105 -130 -234 -230q-7 -6 -13 -10t-10 -7q-46 -33 -64.5 -53.5t-18.5 -38.5q0 -12 8 -26q16 -22 39.5 -34.5t49.5 -13.5q7 -1 20 -1q81 0 184 62q103 61 186.5 145.5z
" />
    <glyph glyph-name="uniF064" unicode="&#xf064;" horiz-adv-x="794" 
d="M610.5 160.5q44.5 -39.5 76.5 -89.5q7 -11 7 -24q0 -12 -6 -23t-17 -18q-10 -6 -23 -6q-12 0 -23 6t-18 17l-6 8h-408l-6 -8q-7 -11 -18 -17t-23 -6t-23 6q-11 7 -17 18t-6 23q0 10 7 24q37 63 100 109q12 9 28 9t29 -10q18 -15 18 -37q0 -5 -4 -17h223q-31 18 -74 37
l-43 18q-106 37 -192 105q-45 41 -69 97t-23 118q-1 62 23 118t69 97q5 4 9.5 8t9.5 7q13 9 28 9q24 0 37 -18q9 -12 9 -28q0 -24 -17 -37h256q-72 50 -150 78l-43 18q-69 25 -126.5 70.5t-97.5 106.5q-7 12 -7 24q0 26 23 40q10 7 24 7q26 0 40 -23l6 -8h408l6 8
q14 23 40 23q14 0 24 -7q23 -14 23 -40q0 -14 -7 -24q-32 -50 -76.5 -89.5t-98.5 -64.5q48 -26 90 -60q45 -41 69 -97.5t23 -117.5q1 -61 -23 -117.5t-69 -97.5q-42 -34 -90 -60q54 -25 98.5 -64.5zM196 469h402q2 20 2 31q0 32 -9 63h-388q-9 -31 -9 -63q0 -11 2 -31z
M368 838l29 -12l30 12q43 19 74 37h-207q31 -19 74 -37zM253 356q67 -52 144 -80q80 29 144 80l18 19h-324z" />
    <glyph glyph-name="uniF065" unicode="&#xf065;" horiz-adv-x="888" 
d="M774.5 389q-13.5 -14 -33.5 -14h-57q11 -45 35 -85v-1v0q2 -4 2 -6l3 -5q0 -4 1 -6v-7q0 -3 -1 -5q0 -7 -3 -12q0 -2 -2 -6v0l-1 -1q-25 -41 -34 -85h57q20 0 33.5 -13.5t13.5 -33.5q0 -19 -13.5 -33t-33.5 -14h-57q1 -1 1 -4q1 -4 1 -11q0 -16 -10 -29t-25 -17
q-4 -1 -11 -1q-16 0 -29 10t-17 26q-9 38 -9 76q0 56 19 107h-320q19 -51 19 -107q0 -38 -9 -76q-3 -13 -11.5 -22t-20.5 -13q-10 -2 -14 -2q-19 0 -32 13q-14 13 -14 34q0 8 1 12q0 3 1 5h-57q-19 -1 -33 12.5t-14 33.5t14 33.5t33 13.5h57q-9 44 -34 85l-1 1v1q-2 2 -2 5
l-3 5v7q-1 2 -1 5q0 5 1 7v6l3 5q0 2 2 6v0v1q24 40 35 85h-57q-19 0 -33 14t-14 33q0 20 14 33.5t33 13.5h58q-11 45 -35 85h-1v1q-2 4 -2 5l-3 6v6q-1 2 -1 6t1 6v6l3 6q0 1 2 5v1v0q25 42 35 86h-57q-19 -1 -33 12.5t-14 33.5t14 33.5t33 13.5h58q-11 45 -35 85l-1 1v1
q-2 2 -2 5l-3 5q0 5 -1 7v5v7q1 2 1 5l3 7l2 5v0v1q14 22 26 54q4 14 16.5 22.5t27.5 8.5q9 0 16 -3q14 -4 22.5 -16.5t8.5 -26.5q0 -8 -3 -16l322 -1q-2 5 -2 15q0 15 8.5 27.5t22.5 17.5q5 2 15 2q15 0 27 -8t17 -22q10 -26 26 -54v-1v0l2 -5l3 -6q0 -4 1 -6v-7
q0 -4 -1 -5v-7l-3 -5q0 -2 -2 -6v0l-1 -1q-24 -40 -35 -85h58q20 0 33.5 -13.5t13.5 -33.5q0 -19 -13.5 -32.5t-33.5 -13.5l-57 -1q11 -45 35 -85v0v-1q2 -4 2 -5l3 -6q0 -4 1 -6v-6q0 -4 -1 -6v-6l-3 -6q0 -1 -2 -5v-1h-1q-24 -40 -35 -85h58q20 0 33.5 -13.5t13.5 -33.5
q0 -19 -13.5 -33zM304 735q0 -56 -20 -110h320q-20 54 -20 110q0 55 20 109h-320q20 -54 20 -109zM584 423q0 54 20 108h-320q20 -54 20 -108q0 -56 -20 -110h320q-20 54 -20 110z" />
    <glyph glyph-name="uniF066" unicode="&#xf066;" 
d="M1086.5 767.5q13.5 -13.5 13.5 -33.5v-625q0 -19 -13.5 -32.5t-33.5 -13.5q-19 -1 -33 12.5t-14 33.5v141h-812v-141q0 -19 -13.5 -32.5t-33.5 -13.5q-19 -1 -33 12.5t-14 33.5v782q0 19 13.5 32.5t33.5 14.5q20 0 33.5 -13.5t13.5 -33.5v-110l19 28q7 10 17 15.5t21 5.5
q15 0 27 -9l239 -165h489v78q0 20 14 33.5t33 13.5q20 0 33.5 -13.5zM725 563v-63h281v63h-281zM631 563h-62v-63h62v63zM469 500h6v72l-211 145l-36 -51zM194 500h110l-110 76v-76zM1006 406h-812v-62h812v62z" />
    <glyph glyph-name="uniF067" unicode="&#xf067;" horiz-adv-x="1201" 
d="M1101 672q0 -36 -17 -67q-24 -43 -68.5 -68t-83.5 -34q-83 -23 -153.5 -71.5t-122.5 -116.5q-41 -50 -63 -114l-6 -20q-17 -72 -67 -124q-21 -19 -47.5 -29.5t-54.5 -10.5q-18 0 -33 4q-37 11 -65.5 36.5t-44.5 60.5q-12 22 -17 33q-14 28 -26 46q-42 0 -78 21
q-25 18 -39.5 45.5t-14.5 57.5q0 26 13 54q18 38 48.5 54t75.5 27q18 4 28 7q79 22 149 68q37 28 79 68q59 57 95 108t53 113q15 57 61.5 106t102.5 56q5 1 16 1q38 0 70 -21t48 -56q20 -37 23 -78q43 -13 80.5 -40.5t51.5 -71.5q7 -20 7 -44zM1007 672q0 9 -3 16
q-11 26 -37 37q0 -9 1 -13t1 -11q0 -20 -15 -34q-13 -12 -32 -12q-10 0 -15 2q-12 5 -20.5 14.5t-10.5 22.5q-6 40 -5 77q3 47 -13 88q-19 34 -41 30q-24 -3 -50.5 -31.5t-35.5 -62.5q-21 -79 -64.5 -140t-108.5 -123q-44 -44 -90 -77q-83 -56 -175 -81q-11 -4 -35 -10
q-30 -7 -42.5 -12.5t-17.5 -16.5q-3 -6 -3 -14q0 -15 10 -24q23 -8 44 -7q9 0 27 -2q69 -6 125 -51q17 -14 17 -36q0 -8 -3 -16q-5 -14 -17 -22.5t-27 -8.5q-4 0 -10 2q15 -31 47 -45q30 -3 49 16q31 36 40 82q3 7 7 21q29 82 79 143q61 80 144 136.5t181 83.5q28 5 52.5 20
t41.5 37q5 12 5 22z" />
    <glyph glyph-name="uniF068" unicode="&#xf068;" 
d="M774.5 14q13.5 14 13.5 33v266h265q19 -1 33 12.5t14 33.5v282q0 20 -13.5 33.5t-33.5 13.5h-265v265q0 20 -13.5 33.5t-33.5 13.5h-282q-19 0 -32.5 -13.5t-13.5 -33.5v-265h-266q-19 0 -33 -13.5t-14 -33.5v-282q0 -19 13.5 -32.5t33.5 -13.5h266v-266q-1 -19 12.5 -33
t33.5 -14h282q20 0 33.5 14zM492.5 392.5q-13.5 13.5 -33.5 13.5h-265v188h265q20 0 33.5 14t13.5 33v265h188v-265q0 -19 14 -33t33 -14h265v-188h-265q-19 0 -33 -13.5t-14 -33.5v-265h-188v265q0 20 -13.5 33.5z" />
    <glyph glyph-name="uniF069" unicode="&#xf069;" horiz-adv-x="1188" 
d="M736.5 14q13.5 14 13.5 33v182l158 -91q12 -6 23 -6q27 0 41 23l110 190q6 11 6 23t-6 23t-17 18l-158 91l158 91q11 7 17 18t6 23q0 13 -6 23l-110 190q-14 23 -41 23q-11 0 -23 -6l-158 -91v182q0 20 -13.5 33.5t-33.5 13.5h-218q-19 0 -33 -13.5t-14 -33.5v-182
l-158 91q-12 6 -23 6q-27 0 -41 -23l-110 -190q-6 -10 -6 -23q0 -12 6 -23t17 -18l159 -91l-159 -91q-11 -7 -17 -18t-6 -23t6 -23l110 -190q14 -23 41 -23q11 0 23 6l158 91v-182q0 -19 14 -33t33 -14h218q20 0 33.5 14zM525.5 334q-6.5 11 -17.5 17t-24 6t-23 -6
l-188 -108l-62 108l188 108q11 7 17 17.5t6 23.5t-6 23.5t-17 17.5l-188 108l62 108l188 -108q14 -7 24 -7q11 0 23 7q11 6 17.5 17t6.5 23v217h125v-217q0 -12 6 -23t17 -17q10 -6 23 -6q14 0 24 6l188 108l62 -108l-188 -108q-11 -7 -17 -17.5t-6 -23.5t6 -23.5t17 -17.5
l188 -108l-62 -108l-188 108q-10 7 -24 7q-13 0 -23 -7q-11 -6 -17.5 -17t-5.5 -23v-217h-125l-1 217q1 12 -5.5 23z" />
    <glyph glyph-name="uniF070" unicode="&#xf070;" horiz-adv-x="919" 
d="M796 696q23 -23 23 -55v-282q0 -41 -16.5 -79t-45.5 -67l-1 -41q1 -32 -22 -55t-56 -23h-15v-47q0 -19 -13.5 -33t-33.5 -14q-19 0 -33 14t-14 33v47h-16q-32 0 -55 23t-23 55v41q-30 28 -46 66.5t-16 79.5v282q0 32 23 55t55 23h78v69q-43 12 -74.5 43.5t-43.5 74.5
h-210q-19 0 -33 -13.5t-14 -33.5v-812q0 -19 -13.5 -33t-33.5 -14q-19 0 -33 14t-14 33v812q0 38 19 70.5t51.5 51.5t70.5 19h250q20 0 33.5 -13.5t13.5 -33.5q0 -21 10.5 -38.5t28.5 -28.5q14 20 39 20q12 0 22 -5t17 -15q18 11 28.5 28.5t10.5 38.5q0 20 14 33.5t33 13.5
q20 0 33.5 -13.5t13.5 -33.5q0 -58 -34.5 -103.5t-90.5 -61.5v-69h78q32 0 55 -23zM530 291q24 -30 62 -38q12 -3 25 -3q30 0 57 17t40 46h-67q-19 -1 -33 12.5t-14 33.5t14 33.5t33 13.5h78v63h-78q-19 0 -33 14t-14 33q0 20 14 33.5t33 13.5h78v62h-218l-1 -266
q0 -38 24 -68z" />
    <glyph glyph-name="uniF071" unicode="&#xf071;" 
d="M1040 620.5q33 -21.5 49 -58.5q11 -27 11 -52q0 -26 -9.5 -49.5t-27.5 -42.5l-148 -156q-14 -14 -34 -14t-34 15l-137 143h-1h-22l-56 -336q-3 -17 -16 -28t-30 -11h-1q-17 0 -30 11t-16 27l-105 569l-52 -348q-3 -17 -15 -28t-28 -12q-16 -2 -29.5 7t-18.5 25l-58 174
l-12 -24q-6 -12 -17.5 -19t-24.5 -7h-31q-19 0 -33 14t-14 33q0 20 14 33.5t33 13.5h2l50 99q6 13 18.5 20t26.5 6t25 -9.5t16 -22.5l32 -96l65 432q2 17 15 28t30 12q17 0 30.5 -11t16.5 -28l108 -581l19 112q2 17 15.5 28t30.5 11h16v10q-1 39 20.5 71.5t56.5 48.5
q26 12 55 12q51 0 86 -31q38 32 86 32v-1q40 0 73 -21.5zM1007 510q0 11 -6 20q-5 9 -14 14t-19 5q-3 0 -11 -2q-13 -3 -21 -13.5t-8 -23.5q0 -19 -13.5 -33t-33.5 -14q-19 0 -33 14t-14 33q0 13 -7.5 23.5t-20.5 13.5q-8 2 -11 2q-10 0 -19 -5t-14 -14q-6 -9 -6 -20
q0 -14 11 -27l114 -120l115 120h-1q12 12 12 27z" />
    <glyph glyph-name="uniF072" unicode="&#xf072;" horiz-adv-x="1156" 
d="M1004 303q26 -23 31 -58q1 -5 1 -14q0 -31 -19 -56t-49 -33q-136 -37 -269 -40q-7 -1 -23 -1q-25 0 -51 3v-57q0 -19 -13.5 -33t-33.5 -14q-19 0 -33 14t-14 33v58q-23 -4 -51 -4l-23 1q-133 3 -269 40q-30 8 -49 33t-19 56q0 9 1 14q4 34 30.5 57.5t61.5 23.5h3h16
l-14 18q-17 21 -49 63q-28 38 -47 61q-22 27 -22 59q0 26 16 52q13 20 34 31t45 11q13 0 25 -3q30 -8 71 -13q39 -5 88 -17q14 92 48 179l32 86l31 85q10 28 34.5 45t53.5 17t53.5 -17t34.5 -45l49 -135l14 -36q34 -87 48 -179q49 12 88 17q40 5 72 13q12 3 25 3
q24 0 44.5 -11t33.5 -31q16 -26 16 -52q0 -32 -22 -59q-19 -23 -47 -61l-35 -46q-4 -6 -14 -18q1 1 -14 -17h16h3v0q35 0 61 -23zM943 232h-3q-86 0 -169 18q-42 10 -75 14q-4 0 -7 3t-4 7v2q0 4 2.5 6.5t5.5 3.5q67 19 124 64q28 26 49 53l45 59q31 43 51 66
q-27 -8 -85 -16q-7 -1 -41 -7t-63 -16q-50 -19 -88 -49q-4 -3 -9 -3q-6 0 -11 5q-4 5 -2 12q24 50 23 105q-11 93 -45 176l-63 171l-62 -171q-35 -84 -46 -177q-2 -55 23 -104v-3q0 -5 -2 -9q-5 -5 -11 -5q-4 0 -9 3q-38 30 -88 49q-29 10 -63 16t-41 7q-58 8 -85 16
q20 -23 51 -66l45 -59q23 -29 50 -53q55 -44 123 -64q4 -1 6.5 -4.5t1.5 -7.5q-2 -10 -11 -10q-33 -4 -75 -14q-82 -18 -169 -18h-2q118 -32 246 -37h20q28 0 51 4v0q0 20 14 33.5t33 13.5q20 0 33.5 -13.5t13.5 -33.5v0q23 -4 51 -4h20v1q125 3 247 36z" />
    <glyph glyph-name="uniF073" unicode="&#xf073;" horiz-adv-x="1131" 
d="M1031 700q0 -15 -9 -27.5t-23 -16.5q-39 -14 -75 -32q-1 -25 -14 -47q-124 -208 -187 -442q-12 -42 -26.5 -70.5t-45.5 -46.5q-30 -18 -67 -18q-46 0 -91.5 20.5t-115.5 60.5q-29 18 -39 22l-20 12q-74 35 -146 88q-32 26 -52 61t-20 70q0 31 18 61q32 52 110 52
q27 0 81 -9l36 -5q14 -2 23 -2q12 0 36 4q20 6 30.5 33.5t22.5 79.5q1 4 10 44q28 102 78 199q14 24 37.5 38.5t51.5 15.5q30 53 78 87q55 38 113 61q12 5 22 5q19 0 32.5 -14t13.5 -34q0 -14 -8 -26t-22 -17q-60 -26 -97 -50q-26 -21 -40 -40q93 -41 162 -107q48 23 82 34
q5 2 15 2q15 0 27 -8.5t17 -22.5q2 -10 2 -15zM630 148q-37 49 -72 89q-12 14 -12 31q0 20 14 33.5t33 13.5q22 0 36 -16l34 -41q5 15 23 68l-1 2q-35 45 -66 80q-14 12 -14 31t14 33t34 14q19 0 34 -15q20 -22 40 -46q18 42 34 73q-35 45 -73 85q-14 12 -14 33
q0 19 13.5 32.5t32.5 13.5q20 0 33 -13q38 -40 55 -60q4 6 9 15t13 20q2 4 2 6q0 5 -4 9q-83 77 -187 111q-1 1 -4 1q-7 0 -10 -6q-46 -87 -71 -179l-9 -39q-10 -46 -21 -79t-34 -62t-61 -40q-32 -8 -62 -8q-11 0 -31 2q-12 1 -45 7q-37 7 -66 8q-25 0 -29 -8q-4 -5 -4 -13
q0 -20 27 -49q22 19 23 20q14 12 31 12q19 0 32.5 -13.5t13.5 -33.5q0 -22 -17 -36l-5 -4l62 -33l20 -10q1 -1 2.5 -2t4.5 -2q36 34 44 40q12 12 31 12t32.5 -14t13.5 -33q0 -22 -17 -36l-20 -17q76 -42 112 -42q10 0 20 5q21 21 26 50z" />
    <glyph glyph-name="uniF074" unicode="&#xf074;" horiz-adv-x="1169" 
d="M998.5 981q32.5 -19 51.5 -51.5t19 -70.5v-187q0 -19 -13.5 -33t-33.5 -14h-49l-29 -580q-1 -19 -14.5 -32t-32.5 -13h-625q-19 0 -32.5 13t-14.5 32l-29 580h-49q-19 0 -33 14t-14 33v187q0 38 19 70.5t51.5 51.5t70.5 19h687q38 0 70.5 -19zM290 625l26 -531h536
l27 531h-589zM961.5 892.5q-13.5 13.5 -33.5 13.5h-687q-19 0 -33 -13.5t-14 -33.5v-140h62v78q0 20 14 33.5t33 13.5q20 0 33.5 -13.5t13.5 -33.5v-78h94v78q0 20 14 33.5t33 13.5q20 0 33.5 -13.5t13.5 -33.5v-78h93v78q0 20 14 33.5t33 13.5q20 0 33.5 -13.5t13.5 -33.5
v-78h94v78q0 20 14 33.5t33 13.5q20 0 33.5 -13.5t13.5 -33.5v-78h62v140q0 20 -13.5 33.5zM475 297q0 -25 11 -47.5t31 -38.5q29 -23 68 -23q41 0 70 26q19 16 29 38t10 45q0 27 -14 53l-100 179l-93 -183q-12 -24 -12 -49z" />
    <glyph glyph-name="uniF075" unicode="&#xf075;" horiz-adv-x="1169" 
d="M998.5 981q32.5 -19 51.5 -51.5t19 -70.5v-187q0 -19 -13.5 -33t-33.5 -14h-49l-29 -580q-1 -19 -14.5 -32t-32.5 -13h-625q-19 0 -32.5 13t-14.5 32l-29 580h-49q-19 0 -33 14t-14 33v187q0 38 19 70.5t51.5 51.5t70.5 19h687q38 0 70.5 -19zM290 625l26 -531h536
l27 531h-589zM961.5 892.5q-13.5 13.5 -33.5 13.5h-687q-19 0 -33 -13.5t-14 -33.5v-140h62v78q0 20 14 33.5t33 13.5q20 0 33.5 -13.5t13.5 -33.5v-78h94v78q0 20 14 33.5t33 13.5q20 0 33.5 -13.5t13.5 -33.5v-78h93v78q0 20 14 33.5t33 13.5q20 0 33.5 -13.5t13.5 -33.5
v-78h94v78q0 20 14 33.5t33 13.5q20 0 33.5 -13.5t13.5 -33.5v-78h62v140q0 20 -13.5 33.5zM744 281q0 27 -17.5 53.5t-39.5 40.5l-19 -6q12 20 12 44q0 14 -5 29q-20 40 -57 62l-49 36q1 -5 1 -15t-1 -15q-5 -21 -17 -39t-30 -29q-38 -27 -66 -55q-8 -13 -8 -26
q0 -25 22 -41q2 -2 6 -4l-15 -4q-30 -16 -35 -50l-1 -10q0 -27 20 -47q12 -12 26.5 -14.5t28.5 -2.5h19h138q32 3 55.5 24t29.5 52q2 12 2 17z" />
    <glyph glyph-name="uniF076" unicode="&#xf076;" horiz-adv-x="1013" 
d="M913 704v-657q0 -19 -14 -33t-33 -14h-719q-19 0 -33 14t-14 33v907q0 19 14 32.5t33 13.5h469q5 0 15 -2q1 -1 3 -1l5 -3q1 -1 3 -1l7 -6l250 -250l5 -7l1.5 -1.5t1.5 -0.5l3 -6q0 -2 1 -3l1 -6q1 -3 1 -9zM752 750l-89 91v-91h89zM819 656h-203q-20 0 -33.5 14
t-13.5 34v202h-375v-812h625v562zM541 214l135 141q34 37 34 87q0 33 -17 62t-46 46t-62 17q-21 0 -41.5 -7.5t-37.5 -20.5q-36 28 -77 28q-34 0 -63 -17t-46 -45.5t-17 -62.5q0 -49 35 -87l134 -141q14 -14 34 -14q19 0 35 14zM451 464q9 -9 9 -22q0 -20 13.5 -34t32.5 -14
q20 0 34 14t14 34q0 13 9 22t22 9t22 -9t9 -22q0 -14 -9 -22l-101 -105l-101 105q-8 8 -8 22q0 13 9.5 22t22.5 9v0q13 0 22 -9zM492.5 670q13.5 14 13.5 34q0 19 -13.5 32.5t-32.5 13.5h-156q-20 0 -34 -13.5t-14 -32.5q0 -20 14 -34t34 -14h156q19 0 32.5 14z" />
    <glyph glyph-name="uniF077" unicode="&#xf077;" 
d="M690 639q0 6 3 12.5t7 10.5l167 188q11 14 11 30q0 21 -16 35q-13 12 -31 12q-20 0 -34 -15l-165 -185q-16 -18 -40 -18q-10 0 -19 3q-18 15 -18 39q0 11 4 20l43 87l23 45q5 10 5 21q0 10 -4 18q-8 21 -29 27q-8 2 -13 2q-14 0 -26 -8t-18 -21l-21 -41l-11 -22
q-16 -30 -34 -70q-12 -30 -35 -65q-23 -28 -54 -55q-25 -19 -40 -36q-51 -54 -90 -117q-38 -57 -66 -89.5t-63 -50.5q-12 -6 -19 -17.5t-7 -24.5q0 -9 5 -21q6 -12 17.5 -18.5t23.5 -6.5q13 0 22 5q48 24 84.5 65.5t80.5 105.5q37 57 78 103q10 10 36 32q20 18 48 18
q16 0 30 -6q106 -50 167 -144q9 -12 9 -27q0 -19 -14 -33l-20 -22q-9 -12 -18 -21q-17 -17 -37 -42q-24 -31 -42 -48.5t-41 -26.5q-48 -14 -97 -15q-46 -6 -91 -26q-79 -40 -147 -96l-21 -16q-9 -7 -13.5 -17t-4.5 -21q0 -16 9 -28q14 -19 37 -19q16 0 29 10l21 16
q69 53 114.5 78.5t99.5 27.5q15 1 44 1q82 0 143.5 -16t109.5 -51q11 -7 26 -7q6 0 14 2q22 6 30 26q10 17 10 35q0 30 -26 58.5t-62 48.5t-64 27q13 14 27.5 33t18.5 24q31 39 76 66q35 16 66 23l186 54q17 5 27 19.5t9 31.5q-3 21 -21 34q-13 8 -27 8q-4 0 -12 -2
l-188 -55q-17 -4 -38 -12q-2 -1 -7 -1q-17 0 -26 14q-4 8 -4 14q0 15 12 22q66 47 161 105l59 36q11 6 17 17t6 24t-7 24t-18 17q-12 5 -22 5q-12 0 -25 -8l-59 -35q-108 -67 -172 -112q-9 -7 -19 -7q-8 0 -16 5q-4 4 -4 10zM524.5 580q13.5 -14 12.5 -33q1 -19 -12.5 -33
t-33.5 -14q-19 0 -33 14t-14 33q0 20 14 33.5t33 13.5q20 0 33.5 -14zM555.5 424.5q13.5 -13.5 13.5 -33.5q0 -19 -13.5 -33t-33.5 -14q-19 0 -33 14t-14 33q0 20 14 33.5t33 13.5q20 0 33.5 -13.5zM399.5 392q13.5 -14 12.5 -33q1 -19 -12.5 -32.5t-33.5 -13.5
q-19 -1 -33 12.5t-14 33.5t14 33.5t33 13.5q20 0 33.5 -14z" />
    <glyph glyph-name="uniF078" unicode="&#xf078;" 
d="M1086.5 767.5q-13.5 13.5 -33.5 13.5h-172v172q0 20 -13.5 33.5t-33.5 13.5q-19 0 -32.5 -13.5t-13.5 -33.5v-172h-172q-19 0 -33 -13.5t-14 -33.5q0 -19 13.5 -32.5t33.5 -13.5h172v-172q-1 -19 12.5 -33t33.5 -14t33.5 14t13.5 33v172h172q19 -1 33 12.5t14 33.5
t-13.5 33.5zM774 0q-7 0 -15 3q-223 89 -395 261v0q-172 172 -261 395q-3 8 -3 15q0 13 7 25l54 88q11 19 34 22l180 19q14 2 27 -5.5t20 -20.5l94 -192q5 -12 5 -21q0 -17 -10 -28l-33 -42q24 -45 60 -81t81 -60l42 33q11 10 28 10q9 0 21 -5l192 -94q13 -7 20.5 -20
t5.5 -27l-19 -180q-3 -23 -23 -35l-87 -53q-12 -7 -25 -7zM770 99l48 29l13 124l-136 67l-42 -33q-13 -10 -29 -10q-12 0 -20 4q-75 35 -132 92t-92 132q-5 10 -5 19q0 16 11 30l33 43l-67 135l-124 -13l-29 -48q85 -191 231 -340v0q149 -146 340 -231z" />
    <glyph glyph-name="uniF079" unicode="&#xf079;" horiz-adv-x="1106" 
d="M488 989q13 -11 16 -28l1 -8q0 -14 -8.5 -26.5t-22.5 -17.5v-487q0 -23 -18 -38l-107 -79v-214q14 -5 22.5 -17.5t8.5 -26.5l-1 -8q-3 -17 -16 -28t-29 -11h-63q-16 0 -29.5 11t-16.5 28q-2 17 6.5 31.5t24.5 20.5v214l-107 79q-18 14 -18 38l-1 487q-16 6 -24 20.5
t-6 31.5q3 17 16.5 28t29.5 11h313q16 0 29 -11zM224 719h157v187h-157v-187zM381 625h-157v-180l78 -58l79 58v180zM996.5 926q-8.5 -12 -22.5 -17v-487q0 -23 -18 -38l-107 -79v-214q14 -5 22.5 -17.5t8.5 -26.5l-1 -8q-3 -17 -16 -28t-29 -11h-63q-16 0 -29.5 11
t-16.5 28q-2 17 6.5 31.5t24.5 20.5v214l-107 79q-18 14 -18 38l-1 487q-16 6 -24 20.5t-6 31.5q3 17 16.5 28t29.5 11h313q20 0 33.5 -13.5t13.5 -33.5q-1 -15 -9.5 -27zM724 719h157v187h-157v-187zM881 625h-157v-180l78 -58l79 58v180z" />
    <glyph glyph-name="uniF080" unicode="&#xf080;" 
d="M563 416q0 19 -14 33t-33 14q-18 0 -33 -13l-55 -56l-55 56q-15 13 -33 13q-19 0 -33 -14q-13 -13 -13 -33q0 -19 13 -33l55 -55l-55 -55q-13 -13 -13 -33t13 -33t33 -13t33 13l55 55l55 -55q14 -13 33 -13q20 0 33 13q14 14 14 33q0 18 -13 33l-56 55l56 55q13 15 13 33
zM1086.5 205.5q-13.5 13.5 -33.5 13.5h-78v125h16q19 0 32.5 13.5t14.5 33.5q0 20 -13.5 33.5t-33.5 13.5h-16v218q0 43 -21 78.5t-57 57t-78 21.5h-406l-1 62q0 34 -16.5 62.5t-45 45.5t-62.5 17h-79q-19 0 -32.5 -13.5t-13.5 -33.5q-1 -19 12.5 -33t33.5 -14h78
q13 0 22.5 -9t9.5 -22v-238q-100 -36 -159.5 -121t-59.5 -188q0 -41 8 -74q17 -74 64 -132t114 -90t141 -32q12 0 38 2q82 9 148.5 55t104.5 117.5t38 153.5q0 11 -1 16h126v-157q-38 1 -65 -25.5t-28 -64.5q-2 -38 23.5 -66t63.5 -30q37 -3 66 21t33 62q1 3 1 10v31h78
q20 0 33.5 14t13.5 33q0 20 -13.5 33.5zM631 210.5q-32 -53.5 -85.5 -85t-117.5 -31.5q-63 0 -117 31.5t-85.5 85.5t-31.5 117q0 64 31.5 117.5t85 85t117.5 31.5t118 -31t85.5 -85t31.5 -118t-32 -117.5zM667.5 551.5q-46.5 49.5 -108.5 77t-131 27.5q-10 0 -15 -1v64h406
q26 0 44 -18.5t18 -44.5v-218l-144 -1q-23 65 -69.5 114.5z" />
    <glyph glyph-name="u1F480" unicode="&#xf081;" horiz-adv-x="1198" 
d="M1098 313l-1 -29q0 -63 -2 -92l-1 -21q-1 -11 -3.5 -50.5t-8.5 -80.5q-3 -17 -16.5 -28.5t-30.5 -11.5q-5 0 -7 1q-33 4 -91 16l-27 5q-23 5 -61 10q-51 6 -104 28q-54 25 -89 73.5t-63 118.5q-72 -28 -144 -28q-77 0 -146 29t-118 83q-41 47 -63 108.5t-22 127.5
q0 112 56 203q54 88 140.5 144.5t188.5 72.5q50 9 99 9q96 0 187.5 -31.5t167.5 -91.5q55 -45 85 -98.5t30 -106.5q0 -17 -3 -34q-5 -27 -13 -49q-9 -22 -11 -45q1 -15 9.5 -27t21.5 -16q22 -8 29 -27q4 -8 4 -18q0 -11 -6 -22q-13 -24 -28 -56l-9 -18q21 0 35 -14
q15 -15 15 -34zM994 101q2 16 4 48q-53 3 -112 14q-13 3 -22 11.5t-13 20.5q-3 8 -3 15q0 16 13 31q14 15 35 15q6 0 9 -1q50 -9 98 -12v36q-23 13 -36 35t-13 48q0 22 10 41q5 6 8 16l10 20q-23 20 -35.5 47.5t-13.5 57.5q2 41 16 77q5 13 10 34q1 5 1 16q0 41 -27 76.5
t-54 57.5q-64 50 -139.5 76t-154.5 26q-39 0 -84 -8q-82 -12 -151.5 -57t-113.5 -115q-42 -70 -42 -154q0 -50 15.5 -95.5t45.5 -79.5q34 -39 85.5 -59.5t108.5 -20.5q47 0 91.5 14.5t81.5 42.5l7 6q31 28 74 39q6 1 17 1q47 0 88 -25l21 -11q9 -3 20 -3v0q20 0 33.5 -13.5
t13.5 -33.5q0 -19 -13.5 -33t-33.5 -14q-29 0 -56 11l-27 13q-20 13 -46 16q-18 -7 -33 -21l-8 -6l-4 -3q24 -60 49 -98t61 -56q35 -14 79 -19l90 -16zM885 673.5q6 -10.5 6 -21.5q0 -12 -8 -25q-19 -33 -19 -68q0 -8 2 -22q1 -3 1 -9q0 -16 -11 -29t-27 -16q-3 -1 -9 -1
q-17 0 -30 10.5t-16 27.5q-4 26 -4 40q0 61 34 117q12 17 29 20q4 1 11 1q14 0 25 -7q10 -7 16 -17.5z" />
    <glyph glyph-name="uniF082" unicode="&#xf082;" 
d="M1100 231q0 -12 -6 -22.5t-16 -17.5q-13 -8 -25 -8q-11 0 -21.5 6t-17.5 16l-63 98q-5 8 -7 19l-24 192q-1 8 -7 13t-13 4q-8 0 -13.5 -5.5t-5.5 -13.5v-97v-34q0 -36 -6 -63.5t-24 -47.5q27 -48 48.5 -84t35.5 -60l33 -55q7 -11 7 -26q0 -13 -5 -22q-6 -11 -17 -17.5
t-24 -6.5t-24 6.5t-17 17.5l-58 97q-40 -56 -100.5 -88t-129.5 -32t-129.5 32t-100.5 88l-58 -97q-6 -11 -17 -17.5t-24 -6.5t-24 6.5t-17 17.5q-5 9 -5 22q0 15 7 26q20 32 29 48q57 92 90 152l-18 27q-10 21 -12 35q-3 23 -3 47q0 17 1 26v106q0 8 -5.5 13.5t-13.5 5.5h-2
q-7 0 -12 -5t-6 -12l-24 -192q-2 -11 -7 -19l-63 -98q-7 -10 -17.5 -16t-21.5 -6q-12 0 -25 8q-10 7 -16 17.5t-6 22.5q0 14 7 25l57 89l23 181q5 42 37 70.5t75 28.5q6 0 20 -2v76q-19 11 -31 33q-9 20 -9 35q0 23 17 38.5t44 20.5q32 79 103.5 126.5t156.5 47.5t156 -47.5
t104 -126.5q27 -5 44.5 -20.5t17.5 -39.5q0 -14 -9 -34q-14 -23 -32 -33v-76q14 2 20 2q43 0 75 -28.5t37 -70.5l23 -182l57 -88q7 -11 7 -25zM502 878.5q-41 -25.5 -65 -68t-24 -91.5v-74v0q76 -79 163 -138q121 35 207 130l5 3v79q-1 60 -35 108.5t-90 67.5q-2 -9 -6 -16
q-7 -18 -25 -31q-7 36 -39 58v0q-50 -2 -91 -27.5zM707.5 128q48.5 34 68.5 90q-11 26 -29 54q-10 17 -19.5 35t-14.5 34q-4 14 -4 21q0 11 5 23q6 9 15.5 14t20.5 5q5 0 17 -4q6 -2 21 -10v123q-57 -44 -114 -69q16 -16 16 -36q0 -15 -9 -27q-14 -19 -38 -19q-13 0 -23 6
q-117 66 -207 148v-126q10 7 20 11q8 3 16 3q23 0 37 -19q5 -12 5 -23q0 -7 -4 -21q-5 -16 -14.5 -34t-19.5 -35q-18 -28 -29 -54q20 -56 68.5 -90t107.5 -34t107.5 34zM671.5 759q9.5 -9 22.5 -9t22 9t9 22t-9 22t-22 10q-13 0 -22 -9t-9 -23q-1 -13 8.5 -22zM484 759
q9 -9 22 -9t22 9t9 22q1 13 -8 22t-23 10q-13 0 -22 -9.5t-9 -22.5t9 -22zM546 611q24 -17 54 -17t54 17t34 45h-176q10 -28 34 -45z" />
    <glyph glyph-name="uniF083" unicode="&#xf083;" horiz-adv-x="1130" 
d="M1030 423q0 -66 -29 -129q-29 -69 -60 -127q-18 -35 -49.5 -58t-70.5 -30q-6 -1 -17 -1q-38 0 -70 20q-31 -20 -69 -20q-11 0 -17 1q-36 4 -70 30q-38 -52 -94.5 -80.5t-119.5 -28.5q-43 0 -82 13q-82 27 -132.5 97t-49.5 156v437q0 72 35.5 133t96.5 97t133 36t133 -36
t97 -97t36 -133v-66q32 -2 63 -14q12 69 47 128q14 23 40 23q14 0 24 -6q23 -14 23 -40q0 -12 -6 -24q-21 -37 -31 -75q29 9 58 9q16 0 32 -3q41 -6 73.5 -30.5t50.5 -61.5q25 -61 25 -120zM454.5 119q40.5 25 62.5 69q-27 52 -50 106q-28 66 -28 144h-136q-19 0 -33 13.5
t-14 32.5q0 20 14 33.5t33 13.5h156q2 7 5 12q22 49 73 76v84q0 47 -23 86.5t-62.5 62.5t-86.5 23t-86.5 -23t-62.5 -62.5t-23 -86.5v-437q0 -47 23 -86.5t62.5 -62.5t86.5 -23q49 0 89.5 25zM936 432q0 39 -15 70q-7 16 -22 27t-33 14q-5 1 -14 1q-24 0 -46 -9t-38 -26
q-13 -13 -33 -13t-34 13q-35 35 -82 35q-11 0 -16 -1q-18 -3 -33 -14t-22 -27q-15 -31 -15 -70q0 -52 21 -102q31 -73 56 -117q16 -33 50 -41q12 -1 22.5 4t17.5 14q14 14 34 14q21 0 35 -14q7 -9 17.5 -14t22.5 -4q34 8 50 41q29 54 56 117q21 50 21 102z" />
    <glyph glyph-name="uniF084" unicode="&#xf084;" horiz-adv-x="1106" 
d="M780 124q104 61 165 165t61 227t-60.5 227t-165 165t-227.5 61t-227 -61t-165 -165t-61 -227t61 -227t165 -165t227 -61t227 61zM733.5 826.5q82.5 -48.5 131 -131t48.5 -179.5q0 -98 -48.5 -180.5t-131 -131t-180.5 -48.5q-97 0 -179.5 48.5t-131 131t-48.5 180.5
q0 97 48.5 179.5t131 131t179.5 48.5q98 0 180.5 -48.5zM586.5 451.5q-13.5 -13.5 -33.5 -13.5q-19 -1 -32.5 12.5t-13.5 33.5v219q-1 19 12.5 33t33.5 14t33.5 -13.5t13.5 -33.5v-219q0 -19 -13.5 -32.5zM586.5 361.5q13.5 -13.5 13.5 -33.5q0 -19 -13.5 -33t-33.5 -14
q-19 0 -32.5 13.5t-13.5 33.5q-1 19 12.5 33t33.5 14t33.5 -13.5z" />
    <glyph glyph-name="uniF085" unicode="&#xf085;" horiz-adv-x="1169" 
d="M1045.5 100q10.5 6 17.5 17q6 11 6 23q0 14 -7 24l-437 758q-6 11 -17 17t-24 6q-12 0 -23 -6.5t-17 -16.5l-438 -758q-6 -10 -6 -23q0 -12 6 -24q7 -11 17.5 -17t23.5 -6h875q13 0 23.5 6zM941 188h-713l356 617zM617.5 389q-13.5 -14 -33.5 -14q-19 0 -32.5 13.5
t-13.5 33.5v156q-1 19 12.5 33t33.5 14t33.5 -13.5t13.5 -33.5v-156q0 -19 -13.5 -33zM617.5 330.5q13.5 -13.5 13.5 -33.5q0 -19 -13.5 -33t-33.5 -14q-19 0 -32.5 13.5t-13.5 33.5q-1 19 12.5 33t33.5 14t33.5 -13.5z" />
    <glyph glyph-name="uniF086" unicode="&#xf086;" horiz-adv-x="1106" 
d="M780 124q104 61 165 165t61 227t-60.5 227t-165 165t-227.5 61t-227 -61t-165 -165t-61 -227t61 -227t165 -165t227 -61t227 61zM733.5 826.5q82.5 -48.5 131 -131t48.5 -179.5q0 -98 -48.5 -180.5t-131 -131t-180.5 -48.5q-97 0 -179.5 48.5t-131 131t-48.5 180.5
q0 97 48.5 179.5t131 131t179.5 48.5q98 0 180.5 -48.5zM553 281v0q-19 0 -33 14l-156 156q-13 14 -13 34t13 33q14 14 33 14t33 -14l77 -77v262q-1 19 12.5 33t33.5 14t33.5 -13.5t13.5 -33.5v-262l76 77q16 14 34 14q19 0 33 -14t14 -33q0 -18 -14 -34l-156 -156
q-14 -14 -34 -14z" />
    <glyph glyph-name="uniF087" unicode="&#xf087;" horiz-adv-x="1106" 
d="M780 908q104 -61 165 -165t61 -227t-60.5 -227t-164.5 -165t-228 -61q-123 0 -227 60.5t-165 165t-61 227.5t61 227t165 165t227 61t227 -61zM733.5 204.5q82.5 48.5 131 131t48.5 180.5q0 97 -48.5 179.5t-131 131t-180.5 48.5q-97 0 -179.5 -48.5t-131 -131
t-48.5 -179.5q0 -98 48.5 -180.5t131 -131t179.5 -48.5q98 0 180.5 48.5zM553 750v0q-19 0 -33 -14l-156 -156q-13 -13 -13 -33t13 -33q14 -14 33 -14t33 14l77 76v-262q-1 -19 12.5 -33t33.5 -14t33.5 14t13.5 33v262l76 -76q16 -14 34 -14q19 0 33 14t14 33t-14 33
l-156 156q-14 14 -34 14z" />
    <glyph glyph-name="uniF088" unicode="&#xf088;" horiz-adv-x="1106" 
d="M161 289q61 -104 165 -165t227 -61t227 60.5t165 164.5t61 228q0 123 -60.5 227t-165 165t-227.5 61t-227 -61t-165 -165t-61 -227t61 -227zM864.5 335.5q-48.5 -82.5 -131 -131t-180.5 -48.5q-97 0 -179.5 48.5t-131 131t-48.5 180.5q0 97 48.5 179.5t131 131
t179.5 48.5q98 0 180.5 -48.5t131 -131t48.5 -179.5q0 -98 -48.5 -180.5zM319 516v0q0 19 14 33l156 156q14 14 33 14t33 -14q14 -13 14 -33t-14 -33l-76 -76l262 -1q19 1 33 -12.5t14 -33.5q0 -19 -13.5 -33t-33.5 -14h-262l76 -76q14 -13 14 -33t-14 -34q-13 -13 -33 -13
t-33 13l-156 156q-14 14 -14 34z" />
    <glyph glyph-name="uniF089" unicode="&#xf089;" horiz-adv-x="1106" 
d="M945 743q-61 104 -165 165t-227 61t-227 -61t-165 -165t-61 -227t61 -227t165 -165t227 -61t227.5 60.5t165 165t60.5 227.5t-61 227zM242.5 695.5q48.5 82.5 131 131t179.5 48.5q98 0 180.5 -48.5t131 -131t48.5 -179.5q0 -98 -48.5 -180.5t-131 -131t-180.5 -48.5
q-97 0 -179.5 48.5t-131 131t-48.5 180.5q0 97 48.5 179.5zM788 516v0q0 -20 -14 -34l-156 -156q-13 -13 -33 -13t-34 13q-13 14 -13 34t13 33l77 76h-262q-19 0 -33 14t-14 33q0 20 14 33.5t33 13.5h262l-77 76q-13 13 -13 33t13 33q16 14 34 14q19 0 33 -14l156 -156
q14 -14 14 -33z" />
    <glyph glyph-name="uniF090" unicode="&#xf090;" horiz-adv-x="855" 
d="M427 969q-19 0 -33 -14l-281 -281q-13 -13 -13 -33t13 -34q13 -13 33 -13t33 13l202 202v-700q-1 -19 12.5 -32.5t33.5 -13.5q19 -1 33 12.5t14 33.5v700l201 -202q14 -13 34 -13t33 13q14 16 14 34q0 19 -14 33l-281 281q-14 14 -34 14z" />
    <glyph glyph-name="uniF091" unicode="&#xf091;" horiz-adv-x="855" 
d="M427 31q-19 0 -33 14l-281 281q-13 14 -13 34t13 33q14 14 33 14t33 -14l202 -202v700q-1 19 12.5 32.5t33.5 14.5q20 0 33.5 -13.5t13.5 -33.5v-700l201 202q16 14 34 14q19 0 33 -14t14 -33q0 -18 -14 -34l-281 -281q-14 -14 -34 -14z" />
    <glyph glyph-name="uniF092" unicode="&#xf092;" horiz-adv-x="1106" 
d="M1006 516q0 19 -14 33l-281 281q-14 14 -33 14q-18 0 -34 -14q-13 -13 -13 -33t13 -33l202 -201l-700 -1q-19 1 -32.5 -12.5t-13.5 -33.5q-1 -19 12.5 -33t33.5 -14h700l-202 -201q-13 -13 -13 -33t13 -34q14 -13 34 -13t33 13l281 281q14 14 14 34z" />
    <glyph glyph-name="uniF093" unicode="&#xf093;" horiz-adv-x="1107" 
d="M100 516q0 19 14 33l281 281q16 14 34 14q19 0 33 -14t14 -33t-14 -33l-202 -201l700 -1q19 1 32.5 -12.5t14.5 -33.5q0 -19 -13.5 -33t-33.5 -14h-700l202 -201q14 -14 14 -33q0 -18 -14 -34q-13 -13 -33 -13t-34 13l-281 281q-14 14 -14 34z" />
    <glyph glyph-name="uniF094" unicode="&#xf094;" horiz-adv-x="855" 
d="M461 549l281 -281q14 -14 14 -33q0 -18 -14 -34q-13 -13 -33 -13t-34 13l-248 248l-248 -248q-13 -13 -33 -13t-33 13q-13 14 -13 34t13 33l281 281q15 15 33 13q20 2 34 -13zM427 844q-19 0 -33 -14l-281 -281q-13 -13 -13 -33t13 -34q13 -13 33 -13t33 13l248 249
l248 -249q14 -13 34 -13t33 13q14 16 14 34q0 19 -14 33l-281 281q-14 14 -34 14z" />
    <glyph glyph-name="uniF095" unicode="&#xf095;" horiz-adv-x="855" 
d="M461 451l281 281q14 16 14 34q0 19 -14 33t-33 14q-18 0 -34 -14l-248 -248l-248 248q-14 14 -33 14t-33 -14q-13 -13 -13 -33t13 -34l281 -281q14 -14 33 -14q20 0 34 14zM427 156q-19 0 -33 14l-281 281q-13 14 -13 34t13 33q14 14 33 14t33 -14l248 -249l248 249
q16 14 34 14q19 0 33 -14t14 -33q0 -18 -14 -34l-281 -281q-14 -14 -34 -14z" />
    <glyph glyph-name="uniF096" unicode="&#xf096;" horiz-adv-x="856" 
d="M395 564l281 282q14 14 33 14t33 -14q14 -13 14 -33t-14 -34l-248 -248l248 -248q14 -13 14 -33t-14 -33q-13 -13 -33 -13t-33 13l-281 281q-14 14 -14 33q0 21 14 33zM100 531q0 -19 14 -33l281 -281q13 -13 33 -13t33 13q14 14 14 33t-14 33l-248 248l248 248
q14 16 14 34q0 19 -14 33t-33 14t-33 -14l-281 -282q-14 -12 -14 -33z" />
    <glyph glyph-name="uniF097" unicode="&#xf097;" horiz-adv-x="856" 
d="M461 564l-281 282q-14 14 -33 14t-33 -14t-14 -33q0 -18 14 -34l248 -248l-248 -248q-14 -14 -14 -33t14 -33q13 -13 33 -13t33 13l281 281q14 14 14 33q0 21 -14 33zM756 531q0 -19 -14 -33l-281 -281q-13 -13 -33 -13t-33 13t-13 33t13 33l248 248l-248 248
q-13 14 -13 34t13 33q14 14 33 14t33 -14l281 -282q14 -12 14 -33z" />
    <glyph glyph-name="uniF098" unicode="&#xf098;" horiz-adv-x="1084" 
d="M518.5 23q55.5 23 98.5 66l339 339q14 12 14 34q0 7 -1 11q-6 26 -34 34q-4 1 -11 1q-20 0 -34 -14l-339 -339q-30 -30 -68.5 -45.5t-78.5 -15.5q-41 0 -79.5 16t-68.5 46t-45.5 68t-15.5 79t15.5 79.5t44.5 67.5l419 419q38 36 89 36q25 0 49.5 -10t42.5 -28
q19 -19 28.5 -42.5t9.5 -48.5q0 -24 -9.5 -47.5t-27.5 -42.5l-305 -305q-14 -14 -35 -14q-19 0 -35 14q-14 14 -14 34t15 35l225 226q14 13 14 34q0 8 -1 12q-3 12 -12 21t-21 12q-8 2 -13 2q-19 0 -33 -14l-226 -226q-21 -21 -31.5 -47t-10.5 -54q0 -59 42 -101
q21 -21 47 -31.5t54 -10.5q59 0 101 42l305 305q31 31 46.5 71.5t15.5 82.5q0 44 -16.5 85t-48.5 73q-31 32 -72 48.5t-85 16.5q-43 0 -83 -15.5t-72 -46.5l-418 -418q-43 -43 -66 -99t-23 -115q0 -63 23 -116q35 -85 111.5 -136t168.5 -51q60 0 115.5 23z" />
    <glyph glyph-name="uniF099" unicode="&#xf099;" horiz-adv-x="980" 
d="M523 736l344 -343q14 -14 14 -33q0 -18 -14 -34q-13 -13 -33 -13t-33 13l-311 311l-311 -311q-13 -13 -33 -13t-33 13q-13 14 -13 34t13 33l344 343q14 14 33 14t33 -14z" />
    <glyph glyph-name="uniF100" unicode="&#xf100;" horiz-adv-x="980" 
d="M523 264l344 343q14 16 14 34q0 19 -14 33t-33 14t-33 -14l-311 -311l-311 311q-14 14 -33 14t-33 -14q-13 -13 -13 -33t13 -34l344 -343q14 -14 33 -14t33 14z" />
    <glyph glyph-name="uniF101" unicode="&#xf101;" horiz-adv-x="637" 
d="M114 467l344 -344q13 -13 33 -13t33 13q14 14 14 33t-14 33l-310 311l310 311q14 14 14 33t-14 33t-33 14t-33 -14l-344 -344q-14 -14 -14 -33t14 -33z" />
    <glyph glyph-name="uniF102" unicode="&#xf102;" horiz-adv-x="637" 
d="M523 467l-344 -344q-13 -13 -33 -13t-33 13t-13 33t13 33l310 311l-310 311q-13 13 -13 33t13 33q14 14 33 14t33 -14l344 -344q14 -14 14 -33t-14 -33z" />
    <glyph glyph-name="uniF103" unicode="&#xf103;" horiz-adv-x="1107" 
d="M752.5 402.5q27.5 -27.5 66.5 -27.5q57 0 75.5 48.5t18.5 92.5q0 81 -34.5 153.5t-96.5 123.5t-141 71q-46 11 -88 11q-98 0 -183 -50.5t-133 -138.5q-43 -80 -43 -170q0 -75 30 -144t86 -121q50 -47 113.5 -71t130.5 -24q105 0 196 59q13 8 26 8q11 0 21.5 -6t17.5 -16
q8 -13 8 -25q0 -11 -5.5 -21.5t-15.5 -17.5q-56 -37 -120 -56t-129 -19q-84 0 -163 30.5t-143 89.5q-71 65 -109 152.5t-38 180.5q0 115 55 216q59 111 167 174.5t231 63.5q53 0 111 -14q100 -25 177.5 -89.5t121.5 -156t44 -193.5q0 -61 -20.5 -115t-63 -87t-104.5 -33
q-42 0 -80 18t-65 51q-30 -33 -70 -51t-83 -18q-34 0 -71 13q-59 22 -95 74.5t-36 115.5v63q0 58 30.5 107.5t83.5 75.5q40 20 89 20q34 0 66.5 -11t58.5 -32q14 12 32 12q7 0 19 -4q12 -6 19.5 -18t7.5 -25v-203q0 -39 27.5 -66.5zM600 407q32 32 32 77l-1 63q1 45 -31 77
t-78 32q-45 0 -77 -32t-32 -77v-63q0 -45 32 -77t77 -32q46 0 78 32z" />
    <glyph glyph-name="uniF104" unicode="&#xf104;" horiz-adv-x="1169" 
d="M1055.5 986.5q13.5 -13.5 13.5 -33.5v-906q0 -19 -13.5 -33t-33.5 -14h-875q-19 0 -33 14t-14 33v250q0 20 14 33.5t33 13.5h172v172q0 20 14 33.5t33 13.5h172v171q-1 19 12.5 33t33.5 14h172v172q0 20 14 33.5t33 13.5h219q20 0 33.5 -13.5zM319 94v156h-125v-156h125z
M538 94v375h-125v-328v-47h125zM756 94v594h-125v-375v-219h125zM850 906v-812h125v812h-125z" />
    <glyph glyph-name="uniF105" unicode="&#xf105;" horiz-adv-x="1169" 
d="M1055.5 267.5q13.5 -13.5 13.5 -33.5v-187q0 -19 -13.5 -33t-33.5 -14h-875q-19 0 -33 14t-14 33v250q0 20 14 33.5t33 13.5h172v172q0 20 14 33.5t33 13.5h218q20 0 33.5 -13.5t13.5 -33.5v-235h391q20 0 33.5 -13.5zM319 94v156h-125v-156h125zM538 94v375h-125v-328
v-47h125zM756 94v94h-125v-94h125zM850 188v-94h125v94h-125z" />
    <glyph glyph-name="uniF106" unicode="&#xf106;" 
d="M874 72q9 -15 7 -32q-3 -17 -16 -28.5t-31 -11.5h-687q-19 0 -33 14t-14 33v250q0 20 14 33.5t33 13.5h172v172q0 19 13.5 32.5t33.5 14.5q20 0 33.5 -13.5t13.5 -33.5v-422h125v203q-1 19 12.5 33t33.5 14t33.5 -13.5t13.5 -33.5v-203h128q5 14 17.5 22.5t27.5 8.5
q15 -1 27.5 -10t16.5 -23q17 -5 26 -20zM319 94v156h-125v-156h125zM1100 47q0 -20 -14 -33q-14 -14 -33 -14t-33 14l-906 906q-14 14 -14 33t14 33q13 14 33 14t33 -14l358 -357v105q-1 19 12.5 33t33.5 14h172v172q0 20 14 33.5t33 13.5h219q20 0 33.5 -13.5t13.5 -33.5
v-855l17 -18q14 -13 14 -33zM975 191v715h-125v-590zM756 410v278h-125v-153z" />
    <glyph glyph-name="uniF107" unicode="&#xf107;" horiz-adv-x="1201" 
d="M1095 709.5q6 -10.5 6 -22.5v-375q0 -20 -13.5 -34t-32.5 -14q-12 0 -22 5l-182 92v-18q0 -46 -31.5 -77.5t-77.5 -31.5h-533q-45 0 -77 32t-32 77v313q0 44 32.5 76.5t76.5 32.5h533q45 0 77 -32t32 -77v-18l182 91q12 5 21 5q15 0 25 -7t16 -17.5zM752.5 666.5
q-4.5 4.5 -10.5 4.5h-533q-6 0 -10.5 -4.5t-4.5 -10.5v-313q0 -7 4.5 -11.5t10.5 -4.5h533q6 0 10.5 4.5t4.5 11.5v313q0 6 -4.5 10.5zM851 532v-67l157 -78v224z" />
    <glyph glyph-name="uniF108" unicode="&#xf108;" horiz-adv-x="1137" 
d="M624 948q8 -12 8 -26l-1 -875q1 -14 -7 -26t-21 -17q-8 -4 -19 -4q-19 0 -33 14l-236 236h-168q-19 0 -33 14t-14 33v375q0 20 14 33.5t33 13.5h168l236 236q13 13 34 13q9 0 18 -3q13 -5 21 -17zM288 344v281h-94v-281h94zM382 652v-336l156 -156v649zM965 183
q12 8 17 21q56 136 56 281q0 144 -56 280q-5 13 -17 21t-26 8q-10 0 -18 -4q-13 -5 -21 -17t-8 -26q0 -6 4 -18q48 -117 48 -245q0 -127 -48 -244q-4 -12 -4 -19q0 -12 8 -25q15 -21 39 -21q14 0 26 8zM788.5 294q12.5 8 17.5 21q33 83 33 169q0 88 -33 169q-4 12 -14.5 20
t-22.5 10q-13 1 -24.5 -3.5t-19.5 -14.5q-10 -13 -10 -29q0 -11 4 -19q26 -61 26 -133q0 -71 -26 -133q-4 -12 -4 -18q0 -13 8 -25t22 -18q10 -4 18 -4h-1q14 0 26.5 8z" />
    <glyph glyph-name="uniF109" unicode="&#xf109;" horiz-adv-x="1166" 
d="M621.5 959q8.5 -12 8.5 -26v-872v0q0 -19 -14 -33t-33 -14q-21 0 -34 14l-234 235h-168q-19 0 -33 14t-14 33v373q0 20 13.5 34t33.5 14h168l234 235q14 14 33 14q11 0 19 -4q12 -5 20.5 -17zM286 357v280h-92v-280h92zM380 665v-335l156 -156v646zM1051 589q15 15 15 33
q0 19 -14 32.5t-33 13.5q-20 0 -33 -13l-92 -92l-92 92q-12 13 -33 13q-19 0 -33 -13.5t-14 -32.5q0 -16 15 -33l92 -92l-92 -91q-15 -17 -15 -33q0 -19 14 -33t33 -14q20 0 33 13l92 92l92 -92q15 -13 33 -13q19 0 33 14t14 33q0 18 -15 33l-91 91z" />
    <glyph glyph-name="uniF110" unicode="&#xf110;" horiz-adv-x="981" 
d="M867.5 424.5q13.5 -13.5 13.5 -33.5v-188q0 -19 -13.5 -33t-33.5 -14h-146q-17 -68 -72.5 -112t-125.5 -44t-125 44t-72 112h-146q-19 0 -33 14t-14 33v188q0 20 14 33.5t33 13.5q19 -1 33 12.5t14 33.5v125q0 72 32.5 135t89.5 105t128 53v51q-1 19 12.5 33t33.5 14
t33.5 -13.5t13.5 -33.5v-51q71 -11 128 -53t89.5 -105t32.5 -135v-125q0 -19 13.5 -32.5t33.5 -13.5t33.5 -13.5zM549 111q27 17 40 45h-197q13 -28 39.5 -45t58.5 -17t59 17zM719.5 403.5q-25.5 36.5 -25.5 80.5l-1 125q0 56 -27 102.5t-73.5 73.5t-102.5 27
q-55 0 -101.5 -27t-74 -73.5t-27.5 -102.5v-125q0 -44 -25.5 -80.5t-67.5 -51.5v-102h593v102q-42 15 -67.5 51.5z" />
    </font>
</defs>
</svg>
