<?xml version="1.0" standalone="no"?>
<!DOCTYPE svg PUBLIC "-//W3C//DTD SVG 1.1//EN" "http://www.w3.org/Graphics/SVG/1.1/DTD/svg11.dtd" >
<svg xmlns="http://www.w3.org/2000/svg" xmlns:xlink="http://www.w3.org/1999/xlink" version="1.1">
<metadata>
Created by FontForge 20161003 at Sun Jul 14 04:26:59 2019
 By www-data
Copyright (c) 2018 by Hislide. All rights reserved.
</metadata>
<defs>
<font id="fontkikosolid" horiz-adv-x="1200" >
  <font-face 
    font-family="font kiko solid"
    font-weight="400"
    font-stretch="normal"
    units-per-em="1000"
    panose-1="0 0 5 0 0 0 0 0 0 0"
    ascent="800"
    descent="-200"
    bbox="99 -65 1109 1029"
    underline-thickness="50"
    underline-position="-100"
    unicode-range="U+0020-F380"
  />
<missing-glyph horiz-adv-x="533" 
d="M437 -65h-338v1065h338v-1065zM178 274v-121h177v121h-177zM320 188h-107v51h107v-51zM248 458v-60h36v25h36v-50h-107v85h-35v-120h177v120h-107zM320 588v-70h-142v-37h177v107h-35zM178 652v-35h70v-40h-70v-35h106v75h71v35h-177zM248 717h-35v38h35v-38zM178 791
v-110h177v36h-71v74h-106zM179 929v-35h69v-40h-70v-35h177v35h-71v40h71v35h-176zM178 129v-35h74l-74 -50v-36h177v36h-109l75 50h34v35h-177z" />
    <glyph glyph-name=".notdef" horiz-adv-x="533" 
d="M437 -65h-338v1065h338v-1065zM178 274v-121h177v121h-177zM320 188h-107v51h107v-51zM248 458v-60h36v25h36v-50h-107v85h-35v-120h177v120h-107zM320 588v-70h-142v-37h177v107h-35zM178 652v-35h70v-40h-70v-35h106v75h71v35h-177zM248 717h-35v38h35v-38zM178 791
v-110h177v36h-71v74h-106zM179 929v-35h69v-40h-70v-35h177v35h-71v40h71v35h-176zM178 129v-35h74l-74 -50v-36h177v36h-109l75 50h34v35h-177z" />
    <glyph glyph-name="space" unicode=" " horiz-adv-x="0" 
 />
    <glyph glyph-name="u1F686" unicode="&#xf001;" horiz-adv-x="888" 
d="M788 31q0 9 -6 18l-121 170h2q39 0 66.5 27.5t27.5 66.5l-1 593q1 39 -26.5 66.5t-66.5 27.5h-438q-39 0 -66 -27.5t-27 -66.5v-593q-1 -39 26.5 -66.5t66.5 -27.5h2l-121 -170q-6 -9 -6 -18q0 -15 13 -25q9 -6 18 -6q16 0 26 13l147 206h280l45 -63h-310q-13 0 -22 -9
t-9 -22t9 -22t22 -9h354l58 -81q7 -10 20 -13h4q11 0 20 6q13 10 13 25zM279 429q9 -9 9 -23q0 -13 -9 -22t-22 -9t-22.5 9t-9.5 22t9 22.5t22 9.5q14 0 23 -9zM654 429q9 -9 9 -23q0 -13 -9 -22t-22 -9t-22.5 9t-9.5 22t9 22.5t22 9.5q14 0 23 -9zM529 884q-9 -9 -22 -9
h-125q-13 0 -22.5 9t-9.5 22q0 14 9.5 23t22.5 9h124q14 0 23 -9t9 -23q0 -13 -9 -22zM194 531v282h500v-282h-500z" />
    <glyph glyph-name="uniF002" unicode="&#xf002;" horiz-adv-x="1187" 
d="M1065 687q10 0 17 -9q5 -7 5 -13q0 -2 -2 -8l-11 -35q-4 -13 -14.5 -22.5t-24.5 -13.5l-38 -9v-316q0 -15 -8.5 -28t-22.5 -19v-89q0 -13 -9 -22t-22 -9h-63q-13 0 -22 9t-9 22v65q-124 -18 -250 -18q-125 0 -250 18v-65q0 -13 -9 -22t-22 -9h-63q-13 0 -22 9t-9 22v89
q-14 6 -22.5 19t-8.5 28v317l-33 8q-14 4 -24 13.5t-15 22.5l-12 35q-1 2 -1 7q0 9 4 14q7 8 19 10h113l32 145q7 32 33 52.5t59 20.5h462q33 0 59 -20.5t33 -52.5l32 -145l117 -1h2zM591 600q151 0 306 20l-44 199q-2 11 -11 18t-20 7h-462q-11 0 -19.5 -7t-11.5 -18
l-44 -199q157 -20 306 -20zM394.5 337q-9.5 14 -24.5 20l-123 49v-45q0 -21 13.5 -37.5t34.5 -20.5l109 -22v26q0 16 -9.5 30zM675.5 290q9.5 9 9.5 22t-9 22.5t-22 9.5h-125q-13 0 -22.5 -9t-9.5 -22t9.5 -22.5t22.5 -9.5h124q13 0 22.5 9zM779 281l109 22q21 4 34.5 20.5
t13.5 37.5v45l-123 -49q-15 -6 -24.5 -20t-9.5 -30v-26z" />
    <glyph glyph-name="uniF003" unicode="&#xf003;" 
d="M622 803.5q-9 9.5 -22 9.5h-469q-13 0 -22 -9.5t-9 -22.5v-406q0 -13 9 -22t22 -9h181q-23 -25 -25 -63q1 -36 25.5 -63t60.5 -30t65 19t35 58q2 12 2 17q0 42 -32 69q-14 14 -14 28q0 11 7 19q9 11 24 11q12 0 20 -7q29 -24 44 -58h76q13 0 22 9t9 22v406q0 13 -9 22.5z
M1077 437l-137 183q-13 17 -32 26.5t-41 9.5h-142q-13 0 -22 -9t-9 -22v-312q0 -13 9 -22.5t22 -9.5h63q-1 -19 6 -36t21 -30q29 -29 67 -27q46 0 69 28t23 66q0 8 -2 22q-1 3 -5 14q-2 8 -2 12q0 9 5 17t14 12q6 3 12 3q9 0 17 -5t12 -14q13 -31 13 -62h31q13 0 22 9.5
t9 22.5v55q0 38 -23 69zM756 594h111q14 0 23 -11l62 -83h-196v94z" />
    <glyph glyph-name="uniF004" unicode="&#xf004;" horiz-adv-x="1140" 
d="M310 432q-9 9 -22 9t-22 -9t-9 -22t9 -22t22 -9t22 9t9 22t-9 22zM874 432q-9 9 -22 9t-22 -9t-9 -22t9 -22t22 -9t22 9t9 22t-9 22zM513 629l63 -153l93 139q2 4 9 9l8 5h-173zM351 441h165l4 7l-58 141zM946 572.5q43 -25.5 68.5 -68.5t25.5 -94t-25.5 -94t-68.5 -68.5
t-94 -25.5t-94 25.5t-68.5 68.5t-25.5 94q0 53 27 97.5t73 68.5l-9 25l-37 -26l-92 -138q7 -14 7 -27q0 -26 -18.5 -44.5t-44.5 -18.5q-17 0 -31.5 8.5t-22.5 23.5h-43q-11 -67 -63.5 -112t-121.5 -45q-51 0 -94 25.5t-68.5 68.5t-25.5 94t25.5 94t68.5 68.5t94 25.5
q44 0 86 -21l60 79l-41 98h-42q-13 0 -22.5 9.5t-9.5 22.5t9.5 22t22.5 9h63v0h93q13 0 22.5 -9t9.5 -22t-9 -22.5t-23 -9.5h-47l26 -62h239l-28 84q-2 6 -2 10q0 11 6 18q10 13 26 13h94q13 0 22 -9t9 -22t-9 -22.5t-22 -9.5h-51l53 -159q14 3 29 3q51 0 94 -25.5z" />
    <glyph glyph-name="uniF005" unicode="&#xf005;" 
d="M1091 53.5q-9 9.5 -22 9.5l-110 -1q73 58 107 145q3 6 3 12q0 9 -7 18q-4 7 -12 10.5t-16 2.5l-278 -32v63h250q17 0 27 15q4 7 4 16q0 7 -3 14l-278 587v56q0 13 -9 22t-22 9t-22 -9t-9 -22v-9l-23 -7l-28 20q-7 6 -18 6q-3 0 -11 -2l-25 -10q-9 -4 -14.5 -12t-5.5 -18
q0 -3 2 -11q4 -9 12 -14.5t17 -5.5q3 0 11 2l10 4l26 -19q8 -5 18 -5q7 0 10 1l19 6v-684l-473 -55q-9 -1 -16 -7t-10 -14l-24 -72l-40 -1q-13 1 -22 -8t-9 -23q0 -13 9 -22t22 -9h938q13 0 22 9t9 22t-9 22.5zM203 259q-9 9 -9 22t9 22.5t22 9.5h6l116 549l-39 15
q-10 4 -15.5 11.5t-5.5 16.5q0 6 3 12q4 10 11.5 15.5t16.5 5.5q6 0 12 -3l301 -115v-570h-406q-13 0 -22 9z" />
    <glyph glyph-name="uniF006" unicode="&#xf006;" 
d="M996 582q44 -12 74 -33.5t30 -48.5t-30 -48.5t-74 -33.5t-83 -12h-165l-64 -125h25q7 0 11.5 -4.5t4.5 -10.5v-63q0 -7 -4.5 -11t-11.5 -4h-74l-81 -157q-7 -14 -21 -22.5t-30 -8.5h-61q-12 0 -18 9q-7 8 -5 20l87 377h-62q-72 2 -137 16l-96 -119q-17 -22 -45 -22h-35
q-11 0 -19 10q-6 9 -3 20l45 160q-26 11 -54 29q28 18 54 29l-45 160q-1 2 -1 7q0 8 4 13q8 10 19 10h35q28 0 45 -22l96 -119q65 14 137 16h62l-87 377v5q0 9 5 15q6 9 18 9h61q16 0 30 -8.5t21 -22.5l81 -156h74q7 0 11.5 -4.5t4.5 -11.5v-63q0 -6 -4.5 -10.5t-11.5 -4.5
h-25l64 -125h165q39 0 83 -12z" />
    <glyph glyph-name="u1F681" unicode="&#xf007;" horiz-adv-x="1204" 
d="M238 822q9 -9 22 -9h813q13 -1 22 8.5t9 22.5t-9 22t-22 9h-813q-13 0 -22 -9t-9 -22t9 -22zM773 579q67 -10 129.5 -36.5t99.5 -60.5q20 -20 31 -44h-142q-76 41 -118 141zM886 187h-219v62h219v-62zM1013.5 556.5q-40.5 29.5 -86.5 50.5q-85 40 -184 48l-34 68
q-6 13 -18.5 21t-27.5 8h-31q-13 0 -22 -9.5t-9 -22.5v-62h-298l-84 112q-10 13 -25 13h-63q-15 0 -24 -11q-9 -10 -7 -26l32 -187q2 -11 9.5 -18t17.5 -8l260 -29q20 -80 63.5 -145.5t101.5 -103.5q8 -5 17 -5v-62h-31q-13 0 -22.5 -9t-9.5 -23q0 -13 9.5 -22t22.5 -9h376
q37 0 66 8.5t51 33.5q8 10 8 21q0 13 -11 24q-8 7 -20 7q-15 0 -24 -11q-10 -11 -26 -15.5t-44 -4.5v65q1 -1 17.5 2.5t24.5 5.5q13 4 37 16q33 18 55 51q22 35 22 81t-24 82t-64.5 65.5z" />
    <glyph glyph-name="uniF008" unicode="&#xf008;" 
d="M1075.5 455q23.5 -38 24.5 -83q-1 -59 -42 -103t-100 -49q-5 -1 -16 -1q-54 0 -97.5 35.5t-53.5 89.5h-3h-316q-11 -55 -54 -90t-99 -35t-99.5 35t-53.5 90h-35q-13 0 -22 9t-9 22q-2 49 11 95.5t41 86.5q41 54 104 79v5q0 32 23 55t55 23h203q19 0 36 -7.5t30 -21.5
q12 -13 18 -31t4 -37l-17 -165q-2 -21 12 -36q15 -15 34 -15h80q17 0 31.5 8.5t22.5 23.5l21 33q24 41 24 88q0 26 -7 48l-62 206h-70q-13 -1 -22 8t-9 23q-1 13 8.5 22t22.5 9h125q11 0 20 -7.5t11 -18.5t-4.5 -21t-16.5 -13l57 -190l1 -7q33 7 57 7q56 0 106 -24
q10 -4 14.5 -14t2.5 -21q-2 -10 -10.5 -17t-19.5 -7q-7 0 -13 3q-39 17 -79 17q-26 0 -50 -7q0 -16 -3 -33q26 9 51 9q37 0 69 -18q40 -20 63.5 -58zM361.5 309.5q19.5 12.5 28.5 34.5h-37q-13 -16 -34 -16t-35 16h-37q10 -22 29.5 -34.5t42.5 -12.5t42.5 12.5zM999 320
q23 23 23 55t-23 55t-55 23t-55 -23t-23 -55t23 -55t55 -23t55 23zM977.5 408.5q-13.5 13.5 -33.5 13.5q-19 0 -33 -13.5t-14 -33.5q0 -19 14 -33t33 -14q20 0 33.5 14t13.5 33q0 20 -13.5 33.5zM489.5 524.5q7.5 4.5 11.5 12.5q3 6 3 14q0 10 -6 19q-27 32 -64 52.5
t-78 25.5h-3q-18 0 -26 -12q-7 -8 -7 -20q0 -5 2 -11q8 -17 26 -19q60 -8 100 -54q9 -12 25 -12v0q9 0 16.5 4.5z" />
    <glyph glyph-name="uniF009" unicode="&#xf009;" 
d="M640 447q9 -9 23 -9h56l-26 -132q-2 -11 -11 -18t-19 -7h-94q-9 0 -16.5 5t-11.5 13l-52 102l-48 -12q2 -20 2 -31q0 -47 -20 -86t-58.5 -62t-90.5 -23q-65 0 -112.5 39.5t-58.5 101.5q-3 17 -3 33q0 53 30 96.5t81 62.5q27 11 61 11q44 0 83.5 -22t63.5 -61l42 10
l-40 79l-238 90q-8 4 -11 7l-63 63q-9 9 -9 22q0 8 4 15q10 16 27 16q5 0 8 -1l250 -62q14 -5 20 -17l25 -49l94 -24l50 50q44 38 104 57q3 1 9 1q10 0 18.5 -5.5t11.5 -15.5l51 -151q1 -3 1 -8q0 -7 -5 -15q-7 -10 -20 -10h-85q-13 0 -22.5 -9t-9.5 -22t9 -22zM380 374
l-37 -9l-55 -32q-8 -5 -17 -5q-17 0 -26 15q-4 7 -4 16q0 18 15 27l58 35q3 2 9 4l30 7q-16 18 -37.5 27.5t-44.5 9.5q-30 0 -58 -17q-24 -15 -37 -38t-13 -51q0 -21 9 -44q13 -33 39.5 -52t60.5 -19q6 0 20 2q38 2 64 35t25 74q0 10 -1 15zM1042 488q49 -43 57 -107
q1 -7 1 -22q0 -58 -36 -104.5t-93 -61.5q-18 -5 -42 -5q-52 0 -96 29t-64 79q-12 32 -12 64q0 46 23.5 86.5t64.5 63.5l-80 240h-71q-13 0 -22 9t-9 22q-1 13 8 22.5t23 9.5l94 -1q10 0 18 -5.5t11 -15.5l24 -72h103q15 0 25 -13q6 -7 6 -18q0 -4 -2 -10l-31 -94
q-3 -10 -11 -15.5t-18 -5.5h-20l11 -34q8 2 24 2q65 0 114 -43zM1006 282q32 32 32 77q0 46 -32 78t-78 32l-3 -1l33 -99q1 -3 1 -9q0 -10 -5.5 -18.5t-15.5 -11.5q-6 -2 -10 -2q-10 0 -18 6t-11 16l-34 99q-22 -16 -34 -39.5t-12 -49.5q0 -20 5 -34q11 -34 39.5 -55
t64.5 -21v0q46 0 78 32z" />
    <glyph glyph-name="uniF010" unicode="&#xf010;" horiz-adv-x="887" 
d="M743 487q44 79 44 169q0 56 -18 110q-24 70 -72.5 123t-114.5 82t-138 29q-13 0 -39 -2q-75 -8 -139 -46.5t-106.5 -99.5t-54.5 -135q-5 -25 -5 -60q0 -90 44.5 -169t122.5 -126q50 -29 72 -83q6 -16 9 -33q1 -12 10 -19.5t21 -7.5h130q12 0 21 7.5t10 19.5q4 20 10 34
q20 51 70 81v0q79 47 123 126zM528.5 147q9.5 -9 9.5 -22v-94q0 -13 -9 -22t-22 -9h-125q-13 0 -22.5 9t-9.5 22v94q0 13 9 22t22 9t22.5 -9t9.5 -22h62q0 13 9 22t22 9t22.5 -9z" />
    <glyph glyph-name="uniF011" unicode="&#xf011;" 
d="M1091 9q9 9 9 22t-9 22.5t-22 9.5l-938 -1q-13 1 -22 -8t-9 -23q0 -13 9 -22t22 -9h938q13 0 22 9zM362 734v3q0 9 8 14l53 35q17 10 32 10q4 0 14 -2l206 -47l-163 -104l-140 76q-10 5 -10 15zM1070.5 833q14.5 -8 22.5 -22q7 -11 7 -26q0 -20 -12 -35v0
q-37 -47 -92 -83l-169 -107l-73 -259q-8 -25 -29 -39l-65 -43q-4 -3 -11 -3q-5 0 -11 2q-12 6 -12 20l-2 244q-1 12 -9.5 20t-20.5 8v0q-13 0 -22 -9q-10 -10 -9 -23v-86q-18 -12 -39 -15l-146 -27q-4 -1 -12 -1q-12 0 -25 5l-229 92q-10 4 -12 16v2q0 8 9 15l72 46
q17 12 40 10l156 -15l429 273q52 33 117 39l117 8q16 1 30.5 -7z" />
    <glyph glyph-name="uniF012" unicode="&#xf012;" 
d="M1090.5 9q9.5 9 9.5 22t-9.5 22t-22.5 9h-937q-13 0 -22 -9t-9 -22t9 -22t22 -9h937q13 0 22.5 9zM524 825q-1 1 -1 4q0 8 5.5 13.5t13.5 5.5q3 0 5 -1l61 -17q24 -6 37 -29l99 -187l-185 55zM1070 361q0 -22 -15.5 -38.5t-37.5 -17.5q-63 -1 -123 15l-101 30l23 11
q8 4 13 11.5t5 16.5q0 13 -9 22.5t-22 9.5q-8 0 -14 -3l-330 -155q-13 -6 -29 -6q-13 0 -19 2l-75 21q-7 2 -11.5 8t-4.5 13q0 11 8 17l144 127l-68 21q-21 6 -38 20l-116 93q-14 11 -22 31l-80 233q-1 2 -1 6q0 8 5.5 13t12.5 5h6l82 -25q22 -6 34 -24l90 -127l487 -145
q64 -19 106 -63l84 -83q16 -16 16 -39z" />
    <glyph glyph-name="u1F68C" unicode="&#xf013;" 
d="M1091 772q-9 9 -22 9h-31v157q0 25 -18.5 43.5t-44.5 18.5h-750q-25 0 -43.5 -18t-18.5 -44v-157h-32q-13 0 -22 -9t-9 -22v-219q0 -13 9 -22t22 -9h32v-344q0 -17 8 -31.5t23 -22.5v-71q0 -13 9 -22t22 -9h125q13 0 22 9t9 22v63h438v-58q0 -13 9 -22t22 -9h125
q13 0 22 9t9 22v66q15 8 23.5 22.5t8.5 31.5v344h31q13 0 22 9t9 22v219q0 13 -9 22zM305.5 330.5q13.5 -13.5 13.5 -33.5q0 -19 -13.5 -33t-33.5 -14q-19 0 -33 14t-14 33q0 20 14 33.5t33 13.5q20 0 33.5 -13.5zM961.5 330.5q13.5 -13.5 13.5 -33.5q0 -19 -13.5 -33
t-33.5 -14q-19 0 -33 14t-14 33t14 33t33 14q20 0 33.5 -13.5zM778.5 259q-9.5 -9 -22.5 -9h-312q-13 0 -22 9t-9 22t9 22.5t22 9.5h312q13 0 22.5 -9.5t9.5 -22.5t-9.5 -22zM747 884q-9 -9 -22 -9h-250q-13 0 -22 9t-9 22t9 22.5t22 9.5h250q13 0 22 -9.5t9 -22.5t-9 -22z
M569 781v-343h-344v343h344zM975 781v-343h-344v343h344z" />
    <glyph glyph-name="uniF014" unicode="&#xf014;" 
d="M872 727.5q9 9.5 9 22.5q0 14 -8.5 22.5t-22.5 8.5h-500q-13 0 -22 -9t-9 -22t9 -22.5t22 -9.5h500q13 0 22 9.5zM231 659.5q-6 9.5 -6 20.5v164q0 13 9 22t22 9h219l24 97q4 13 14 20.5t23 7.5h128q14 0 24 -7.5t13 -20.5l25 -97h218q13 0 22 -9t9 -22v-164
q0 -11 -5.5 -20.5t-15.5 -14.5l-42 -19v-111q-125 70 -270 102q-16 5 -42 5q-24 0 -42 -5q-145 -32 -270 -102v111l-42 19q-9 5 -15 14.5zM1091 53.5q9 -9.5 9 -22.5t-9 -22t-22 -9h-938q-13 0 -22 9t-9 22t9 22.5t22 9.5h156q-89 112 -118 252q-2 8 -2 13q0 22 16 36
q82 72 180 120.5t206 70.5v-430q0 -13 9 -22t22 -9t22.5 9t9.5 22v430q107 -22 205 -70.5t180 -120.5q16 -16 16 -38q0 -7 -1 -11q-31 -143 -119 -252h156q13 0 22 -9.5zM779 291q9 9 9 22v47q3 -1 9 -1q13 0 22 9.5t9 22.5q0 10 -6 17.5t-15 11.5l-39 15q-6 3 -11 3
q-13 0 -22 -9t-9 -22v-94q0 -13 9 -22t22 -9t22 9zM466 291q9 9 9 22v94v0q0 13 -9 22t-22 9q-6 0 -12 -3l-39 -15q-9 -4 -15 -11.5t-6 -17.5q0 -13 9 -22.5t22 -9.5q7 0 10 1v-47q0 -13 9 -22t22 -9t22 9z" />
    <glyph glyph-name="uniF015" unicode="&#xf015;" horiz-adv-x="1187" 
d="M1082 584q5 -7 5 -13q0 -2 -2 -8l-11 -34q-5 -14 -15.5 -23.5t-23.5 -12.5l-38 -10v-315q0 -16 -8.5 -29t-22.5 -19v-89q0 -13 -9 -22t-22 -9h-63q-13 0 -22 9t-9 22v65q-128 -17 -250 -17t-250 17v-65q0 -13 -9 -22t-22 -9h-63q-13 0 -22 9t-9 22v89q-14 6 -22.5 19
t-8.5 29v316l-33 9q-14 3 -24 12.5t-15 23.5l-12 34q-1 2 -1 7q0 9 4 14q8 10 19 10h113l32 145q8 32 33.5 53t58.5 21h75v-63h-75q-11 0 -19.5 -6.5t-11.5 -17.5l-44 -200q157 -20 306 -20q151 0 306 20l-44 200q-2 10 -11 17t-20 7h-75v63l75 -1q33 1 58.5 -20t33.5 -53
l32 -145h117q12 0 19 -10zM394.5 243.5q-9.5 13.5 -24.5 20.5l-123 49v-45q0 -22 13.5 -38t34.5 -21l109 -21v26q0 16 -9.5 29.5zM675.5 223q9.5 9 9.5 22t-9 22t-22 9h-125q-13 0 -22.5 -9t-9.5 -22t9.5 -22t22.5 -9h124q13 0 22.5 9zM812 264q-15 -7 -24.5 -20.5
t-8.5 -29.5v-26l108 47q21 5 34.5 21t13.5 38v19zM609 568q8 6 12 16l62 187q2 8 2 11q0 9 -6 18q-10 13 -25 13h-82l49 146q1 3 1 9q0 10 -5.5 18.5t-15.5 11.5q-6 2 -10 2q-10 0 -18 -5.5t-12 -15.5l-62 -188q-2 -6 -2 -10q0 -10 6 -18q10 -13 26 -13h81l-49 -146
q-1 -3 -1 -9q0 -11 6 -20q10 -13 25 -12q10 -1 18 5zM1082 584q5 -7 5 -13q0 -2 -2 -8l-11 -34q-5 -14 -15.5 -23.5t-23.5 -12.5l-38 -10v-315q0 -16 -8.5 -29t-22.5 -19v-89q0 -13 -9 -22t-22 -9h-63q-13 0 -22 9t-9 22v65q-128 -17 -250 -17t-250 17v-65q0 -13 -9 -22
t-22 -9h-63q-13 0 -22 9t-9 22v89q-14 6 -22.5 19t-8.5 29v316l-33 9q-14 3 -24 12.5t-15 23.5l-12 34q-1 2 -1 7q0 9 4 14q8 10 19 10h113l32 145q8 32 33.5 53t58.5 21h75v-63h-75q-11 0 -19.5 -6.5t-11.5 -17.5l-44 -200q157 -20 306 -20q151 0 306 20l-44 200
q-2 10 -11 17t-20 7h-75v63l75 -1q33 1 58.5 -20t33.5 -53l32 -145h117q12 0 19 -10zM394.5 243.5q-9.5 13.5 -24.5 20.5l-123 49v-45q0 -22 13.5 -38t34.5 -21l109 -21v26q0 16 -9.5 29.5zM675.5 223q9.5 9 9.5 22t-9 22t-22 9h-125q-13 0 -22.5 -9t-9.5 -22t9.5 -22
t22.5 -9h124q13 0 22.5 9zM812 264q-15 -7 -24.5 -20.5t-8.5 -29.5v-26l108 47q21 5 34.5 21t13.5 38v19zM609 568q8 6 12 16l62 187q2 8 2 11q0 9 -6 18q-10 13 -25 13h-82l49 146q1 3 1 9q0 10 -5.5 18.5t-15.5 11.5q-6 2 -10 2q-10 0 -18 -5.5t-12 -15.5l-62 -188
q-2 -6 -2 -10q0 -10 6 -18q10 -13 26 -13h81l-49 -146q-1 -3 -1 -9q0 -11 6 -20q10 -13 25 -12q10 -1 18 5z" />
    <glyph glyph-name="u1F680" unicode="&#xf016;" 
d="M1100 969q0 13 -9 22t-22 9q-5 0 -8 -1l-179 -44q-8 -3 -14 -9l-272 -271q17 -8 26 -19l4 -4q23 -28 23 -64l-1 -11v-3q0 -9 7 -18q10 -8 21 -8q44 5 79 -24v0q10 -10 19 -28l94 93l-112 112q-9 9 -9 22t9 22q11 9 23 9q13 0 22 -9l111 -111l45 45l-111 111q-9 9 -9 22
t9 22t22 9t22 -9l111 -111l45 45q7 7 8 14l45 179q1 3 1 8zM266 166q-10 -10 -22 -10q-14 0 -23 9l-112 112q-9 9 -9 23t11 23q198 176 430 294q7 4 14 4q14 0 23 -9v-1q9 -9 9 -22q0 -8 -4 -15q-131 -222 -317 -408zM423 11q-9 -11 -23 -11t-23 9l-112 112q-9 9 -9 22
t10 23q182 182 408 317q7 4 15 4q13 0 22 -9t9 -23q0 -6 -3 -14v0q-119 -234 -294 -430z" />
    <glyph glyph-name="uniF017" unicode="&#xf017;" horiz-adv-x="1198" 
d="M455 311l135 135q9 9 9 22t-9 22t-22 9t-22 -9l-135 -135q-9 -9 -9 -22t9 -22t22 -9t22 9zM1089 926.5q9 -21.5 9 -44.5q0 -21 -8 -43l-29 -75q-16 -43 -49 -76l-557 -557q-10 -10 -22 -10q-11 0 -23 10l-45 44q-9 11 -9 23q0 13 9 22l23 23l-45 45l-23 -22
q-10 -10 -22 -10q-11 0 -23 10l-45 45q-9 9 -9 22q0 14 9 23l557 556q34 33 77 49l75 29q22 8 43 8q23 0 44.5 -9t37.5 -25t25 -37.5zM928 752q13 0 22 9t9 22q0 5 -2 11q-8 21 -24.5 37.5t-37.5 24.5q-5 4 -14 4q-13 0 -22.5 -9t-9.5 -22q0 -10 6 -18t15 -11q21 -8 29 -28
q3 -9 11 -14.5t18 -5.5v0zM225 709q28 28 64.5 43t76.5 14q111 -2 214 28l-282 -282l-135 135zM118 513q-18 20 -18 45t18 45h1l135 -135l-45 -45zM703 18q-20 -18 -45 -18t-45 18l-90 91l45 45l135 -135v-1zM866 266q1 -40 -14 -76.5t-43 -64.5l-62 -62l-135 135l282 282
q-30 -102 -28 -214z" />
    <glyph glyph-name="u1F691" unicode="&#xf018;" horiz-adv-x="1195" 
d="M1095 218q0 -26 -18 -44.5t-44 -18.5q0 31 -12 59.5t-34 50.5q-10 10 -22 10q-13 0 -22 -9.5t-9 -22.5t10 -21q27 -29 27 -67q0 -37 -27.5 -65t-65.5 -28t-66 27.5t-28 65.5v0h-280q0 31 -11.5 59.5t-33.5 50.5q-10 10 -22 10q-13 0 -22 -9.5t-9 -22.5t8 -21
q28 -28 28 -67q0 -38 -27.5 -65.5t-65.5 -27.5q-39 0 -66 27.5t-27 65.5v0h-94q-26 0 -44 18.5t-18 44.5v466q0 26 18.5 44t43.5 18h475l24 72q4 10 12 16t18 6h62q10 0 18 -6t11 -16l24 -72h28q29 0 53.5 -13.5t38.5 -38.5l144 -241q15 -22 21 -49h-898q-13 0 -22 -9
t-9 -22t9 -22t22 -9h902v-124zM972 497l-99 165q-15 22 -39 22h-19v-187h157zM741 746l-10 31h-18l-10 -31h38zM522 608.5q-9 9.5 -22 9.5h-30v31q0 13 -9.5 22t-21.5 9q-13 0 -22.5 -9t-9.5 -22v-31h-31q-13 0 -22 -9.5t-9 -22.5q0 -12 9 -21.5t22 -9.5h31v-31
q0 -12 9.5 -21.5t22.5 -9.5q12 0 21.5 9.5t9.5 21.5v31h30q13 0 22 9.5t9 21.5q0 13 -9 22.5z" />
    <glyph glyph-name="uniF019" unicode="&#xf019;" horiz-adv-x="1202" 
d="M1078 623q10 0 17 -7t7 -16l-1 -8l-12 -35q-4 -13 -14.5 -23t-24.5 -14l-39 -9v-321q0 -16 -8.5 -29t-23.5 -19v-90q0 -13 -9 -22.5t-22 -9.5h-64q-13 0 -22 9.5t-9 22.5v66q-126 -18 -254 -18t-254 18v-66q0 -13 -9.5 -22.5t-22.5 -9.5h-64q-13 0 -22 9.5t-9 22.5v90
q-14 6 -23 19t-9 29v322l-34 8q-14 4 -24.5 14t-14.5 23l-12 35q-1 2 -1 8q0 9 7 16t16 7h115l33 148q5 20 16.5 36t29.5 26l15 60q8 35 36.5 57t64.5 22h331q36 0 64.5 -22t36.5 -57l15 -60q18 -10 30 -26t16 -36l33 -148h119v0zM662 845h150l-8 33q-4 14 -15 22.5t-25 8.5
h-102v-64zM408 900.5q-11 -8.5 -15 -22.5l-8 -33h150v64h-102q-14 0 -25 -8.5zM599 534q152 0 310 20l-45 203q-2 11 -11 18t-20 7h-469q-11 0 -20 -7t-11 -18l-45 -203q158 -20 311 -20zM399 267.5q-9 13.5 -25 20.5l-125 49v-45q0 -22 14 -38.5t35 -21.5l110 -22v27
q0 17 -9 30.5zM684.5 219.5q9.5 9.5 9.5 22.5t-9.5 22.5t-22.5 9.5h-127q-13 0 -22.5 -9.5t-9.5 -22.5t9.5 -22.5t22.5 -9.5h127q13 0 22.5 9.5zM823 288q-15 -7 -24.5 -21t-9.5 -30v-27l110 22q21 5 35 21.5t14 38.5v45z" />
    <glyph glyph-name="uniF020" unicode="&#xf020;" 
d="M1091 303.5q9 -9.5 9 -22.5t-9 -22t-22 -9h-6q6 -16 6 -33q0 -26 -14 -48.5t-38 -34.5q-19 -10 -42 -10t-44 11.5t-34 31.5q-13 -18 -33 -28t-42 -10q-29 0 -52 16q-21 13 -32 34t-11 44q0 25 13 47v0q5 6 5 17q0 17 -14 26q-7 6 -17 6q-17 0 -26 -14q-15 -24 -22 -55
h-132q-6 27 -22 55q-5 7 -12.5 11t-15.5 3q-19 -2 -27 -17q-3 -6 -3 -14q0 -10 5 -18v0q19 -25 19 -57q0 -20 -9 -39q-11 -23 -33 -37.5t-48 -15.5t-48.5 11t-36.5 35q-13 -20 -34 -31t-44 -11q-22 0 -42 10q-24 12 -37.5 34.5t-13.5 48.5q0 20 5 32h-6q-13 0 -22 9t-9 22
t9 22.5t22 9.5h48q-41 108 -41 220q0 137 59 261q4 8 11.5 13t16.5 6h94v-407q0 -13 9 -22t22 -9t22 9t9 22v407h125q0 13 9.5 22t22.5 9h125q13 0 22 -9t9 -22h125v-407q0 -13 9 -22t22 -9t22 9t9 22v407h94q9 -1 16.5 -6t11.5 -13q59 -124 59 -261q0 -112 -41 -220h48
q13 0 22 -9.5z" />
    <glyph glyph-name="u1F69C" unicode="&#xf021;" horiz-adv-x="1198" 
d="M1098 214q0 -42 -21 -78t-57 -57t-78 -21t-78 21t-57 57t-21 78q0 31 12 60t35 52q8 8 8 20q0 13 -9.5 22.5t-22.5 9.5q-10 0 -19 -7q-32 -31 -49 -72t-17 -85q0 -13 -9.5 -22t-22.5 -9t-22 9t-9 22q0 26 7 63h-71q-8 -61 -43 -111t-89 -78.5t-116 -28.5q-67 0 -124 33.5
t-91 91t-34 124.5t34 124.5t91 91t124 33.5q51 0 97 -19t81 -55q9 -9 22 -9t22 9t9 22t-9 22q-44 44 -101.5 68.5t-119.5 24.5q-52 -1 -100.5 -17t-88.5 -47q-11 -7 -20 -7q-13 0 -22 9t-9 22q0 8 3.5 14.5t9.5 10.5q62 46 133 64v262q0 13 9 22t22 9h312q11 0 19.5 -6.5
t10.5 -16.5l62 -250q1 -2 1 -7h156v187q0 13 9 22t22 9t22.5 -9t9.5 -22v-187h150q14 0 24 -10t10 -24v-2l-27 -341q30 -43 30 -91zM575 900h-257v-218h311zM415.5 373.5q-27.5 27.5 -65.5 27.5q-39 0 -66.5 -27.5t-27.5 -65.5t27.5 -66t66.5 -28q38 0 65.5 28t27.5 66
t-27.5 65.5zM964 236.5q-9 9.5 -22 9.5t-22 -9.5t-9 -22.5t9 -22t22 -9t22 9t9 22t-9 22.5z" />
    <glyph glyph-name="uniF022" unicode="&#xf022;" 
d="M560 710q-9 9 -22 9t-22.5 -9t-9.5 -22v-175l-290 290q-9 9 -22 9t-22 -9t-9 -22t9 -22l22 -22v-174q0 -13 9 -22.5t22 -9.5t22 9.5t9 22.5v112l206 -206h-331q-13 0 -22 -9t-9 -22v-157q0 -13 9 -22t22 -9h96q5 -33 27 -58t54 -32q14 -3 27 -3q26 0 48.5 11t38.5 32
q22 31 22 66q0 29 -16 56v0q-5 8 -5 17q0 5 4 15q4 7 11.5 11.5t15.5 4.5t15.5 -4t11.5 -11q25 -40 25 -89q0 -11 -1 -16h64v438q0 13 -9 22zM1091 303.5q-9 9.5 -22 9.5v93q0 39 -27.5 66.5t-66.5 27.5h-69l-18 70q-6 24 -26 39.5t-45 15.5h-123q-26 0 -44.5 -18t-18.5 -44
v-313h127q5 -33 27 -58t54 -32q14 -3 27 -3q26 0 48.5 11t38.5 32q22 28 22 65q0 32 -16 57v0q-5 8 -5 17q0 5 4 15q10 16 27 16q8 0 15.5 -4t12.5 -11q25 -42 25 -89q0 -6 -2 -16h33q13 0 22 9t9 22t-9 22.5zM817 563q7 0 11 -9l13 -54h-147v63h123z" />
    <glyph glyph-name="uniF023" unicode="&#xf023;" 
d="M952 775q69 -38 108.5 -102.5t39.5 -141.5q-1 -86 -50.5 -157t-130.5 -102l-11 -44q-5 -18 -19 -29.5t-32 -10.5h-156q-23 -1 -43.5 10t-33.5 31l-27 43q-175 40 -325 134v0q-8 5 -16 5q-17 0 -27 -15q-5 -8 -5 -16q0 -17 15 -27q32 -20 98 -54q-83 -35 -179 -46
q-24 -2 -41 14q-17 15 -17 39v194h313q13 0 22 9t9 22t-9 22.5t-22 9.5h-313v193q0 23 17 40q16 15 41 13q96 -11 179 -46q-52 -25 -98 -54q-15 -10 -15 -27q0 -8 5 -16q10 -15 27 -15q8 0 16 5v0q117 76 252 116t276 41q83 0 152 -38z" />
    <glyph glyph-name="uniF024" unicode="&#xf024;" 
d="M1064.5 274q-35.5 36 -85.5 38l-130 570q-2 10 -10.5 17t-19.5 7h-94q-13 0 -22 -9t-9 -22t9 -22t22 -9h69l95 -419l-178 -206h-270q-7 52 -38 95t-78 68q-46 24 -100 24q-52 0 -100 -24q-8 -4 -13 -12t-5 -16q0 -6 4 -14t12 -13t16 -5q6 0 14 4q35 18 72 18
q55 0 98.5 -35.5t54.5 -89.5h-32q-11 42 -45.5 68t-77.5 26q-9 0 -14 -1q-47 -6 -78 -41.5t-31 -82.5t31 -83t78 -42q5 -1 14 -1q43 0 77.5 26t45.5 68h379q15 0 24 11l157 182l12 -51q-32 -16 -50 -46.5t-18 -64.5q0 -19 6 -39q13 -39 45.5 -62.5t72.5 -23.5q7 0 21 2
q46 7 75.5 42t29.5 82q0 50 -35.5 86zM247 210q9 -9 9 -22t-9 -22.5t-22 -9.5t-22 9.5t-9 22.5t9 22t22 9t22 -9zM997 210q9 -9 9 -22t-9 -22.5t-22 -9.5t-22 9.5t-9 22.5t9 22t22 9t22 -9z" />
    <glyph glyph-name="uniF025" unicode="&#xf025;" 
d="M947 302.5q28 -23.5 65 -21.5t62.5 29t25.5 65v94h-81l-105 -106q5 -37 33 -60.5zM1068 687q32 -32 32 -78v-78h-94q-13 0 -22 -9l-116 -116h-18q-34 0 -63.5 9t-68.5 27q-29 13 -48.5 20t-38.5 7v94h188v-32q0 -13 9 -22t22 -9t22 9t9 22v78q0 46 32 78t78 32
q45 0 77 -32zM253 302.5q-28 -23.5 -65 -21.5t-62.5 29t-25.5 65v94h81l105 -106q-5 -37 -33 -60.5zM132 687q-32 -32 -32 -78v-78h94q13 0 22 -9l116 -116h18q34 0 63.5 9t68.5 27q29 13 48.5 20t38.5 7v94h-188v-32q0 -13 -9 -22t-22 -9t-22 9t-9 22v78q0 46 -32 78
t-78 32q-45 0 -77 -32z" />
    <glyph glyph-name="uniF026" unicode="&#xf026;" horiz-adv-x="1075" 
d="M956.5 482q18.5 -18 18.5 -44v-375q0 -26 -18.5 -44.5t-44.5 -18.5t-44 18.5t-18 44.5v136q37 12 65 39q10 10 10 23q0 12 -9 21q-9 10 -22 10q-12 0 -22 -8v0q-17 -16 -39.5 -25t-45.5 -9v-125h-500v125q-23 0 -45.5 9t-39.5 25v0q-10 8 -22 8q-13 0 -22 -10
q-9 -9 -9 -21q0 -13 10 -23q29 -27 66 -39v-136q0 -26 -18.5 -44.5t-44.5 -18.5t-44 18.5t-18 44.5v375q0 26 18 44t44 18h1q5 15 18 21q7 4 15 4q7 0 13 -3q35 -14 56.5 -46t21.5 -70v-93h219v625h-156q-14 0 -23 9t-9 22t9.5 22t22.5 9h375q13 0 22 -9t9 -22t-9 -22
t-22 -9h-157v-657q0 -13 9.5 -22t22.5 -9t22 9t9 22v32h156v93q0 38 21.5 70t56.5 46q6 3 13 3q8 0 15 -4q13 -6 18 -21h1q26 0 44.5 -18z" />
    <glyph glyph-name="u1F687" unicode="&#xf027;" horiz-adv-x="1138" 
d="M791.5 246.5q27.5 27.5 27.5 66.5v375q0 38 -27.5 65.5t-66.5 27.5h-312q-39 0 -66.5 -27.5t-27.5 -65.5v-375q0 -39 27.5 -66.5t66.5 -27.5h8l-98 -172q-4 -7 -4 -15t4.5 -16t11.5 -12t15 -4t15.5 4.5t11.5 11.5l116 203h152l35 -63h-173q-13 0 -22.5 -9t-9.5 -22
t9.5 -22t22.5 -9h209l45 -78q8 -15 27 -17q8 0 15.5 4.5t11.5 11.5q5 8 5 16t-5 16l-98 172h8q39 0 66.5 27.5zM876 187q-13 0 -23 10q-9 9 -9 22t9 22q59 57 91 133t31 157q0 91 -38.5 172.5t-107 139.5t-156.5 81q-54 14 -104 14q-108 0 -203.5 -55t-149.5 -151
q-53 -93 -53 -201q0 -81 31.5 -156.5t90.5 -133.5q9 -9 9 -22t-9 -22q-10 -10 -23 -10q-12 0 -21 9q-68 66 -104.5 153.5t-36.5 181.5q0 105 44 199t123.5 161t181.5 94q60 15 119 15q126 0 236 -63t173 -174q61 -107 61 -231q0 -94 -36 -181.5t-105 -154.5v0q-9 -9 -21 -9z
M435 366q9 -9 9 -22t-9 -22t-22 -9t-22 9t-9 22t9 22t22 9t22 -9zM747.5 366q9.5 -9 9.5 -22t-9 -22t-23 -9q-13 0 -22 9t-9 22t9 22t22 9t22.5 -9zM382 438v218h375v-218h-375z" />
    <glyph glyph-name="u1F489" unicode="&#xf028;" 
d="M833 905l-42 42q-9 9 -9 21q0 14 9.5 23t22.5 9q12 0 21 -9l256 -256q9 -9 9 -21q0 -13 -9 -22.5t-23 -9.5q-10 0 -21 9l-42 42l-82 -82l-172 172zM951 522q0 -13 -9.5 -22t-22.5 -9t-21 8l-21 21l-363 -363q-9 -9 -22 -9q-5 0 -8 1l-151 40l-179 -179q-9 -10 -23 -10
q-13 0 -22 9t-9 22q0 14 10 23l179 179l-40 151q-1 3 -1 8q0 13 9 22l363 363l-21 21q-8 8 -8 21t9 22.5t22 9.5q11 0 22 -9l298 -298q9 -11 9 -22zM664 733l-62 -62l42 -42q8 -10 8 -22q0 -13 -9 -22t-22 -9t-22 9l-41 41l-63 -62l169 -169l169 169zM431 371.5
q9 9.5 9 22.5q0 11 -9 22l-21 20q-9 9 -22 9t-22 -9t-9 -22t9 -22l20 -20q10 -10 23 -10t22 9.5z" />
    <glyph glyph-name="uniF029" unicode="&#xf029;" horiz-adv-x="1169" 
d="M1010 495q-59 82 -154 114q-48 16 -99 16q-73 0 -139 -33t-111 -92h-282v-229q0 -13 -9 -22t-22 -9t-22 9t-9 22v479q0 51 25 94t68 68t94 25t94 -25t68.5 -68t25.5 -94v-133q28 20 62 36v97q0 68 -33.5 125.5t-91 91t-125.5 33.5t-125.5 -33.5t-91 -91t-33.5 -125.5
v-500q0 -70 36.5 -130t98.5 -92q53 -28 115 -28q80 0 144 45q-69 67 -96 158q-2 6 -2 10q0 12 9 21q5 6 13.5 8.5t16.5 0.5q8 -1 14.5 -7.5t8.5 -14.5v0q20 -66 65 -116t106 -77.5t129 -27.5q23 0 45 3q75 11 136 55.5t95.5 111.5t34.5 143q0 100 -59 182zM616 149
q-8 2 -14.5 8.5t-8.5 14.5q-1 2 -1 7q0 13 10 23l265 265q9 9 22 9t22 -9t9 -22t-9 -22l-265 -265q-13 -13 -30 -9zM255 97q-13 0 -23 7q-13 11 -29 30q-6 9 -6 19q0 15 12 24q8 7 19 7q15 0 24 -11t20 -20t11 -24q0 -12 -7 -20v0q-7 -10 -21 -12z" />
    <glyph glyph-name="u1F52C" unicode="&#xf030;" horiz-adv-x="888" 
d="M744 150.5q-8 5.5 -19 5.5h-42q51 40 78 98t27 121q0 85 -48 157q-22 -25 -49 -40q34 -53 34 -117q0 -49 -21 -93.5t-60 -76.5q-29 -24 -64.5 -36.5t-72.5 -12.5q-43 0 -82.5 16t-70.5 47h121q13 0 22 9t10 22q0 13 -9.5 22t-22.5 9h-343q-13 0 -22.5 -9t-9.5 -22
t9.5 -22t22.5 -9h141q24 -36 57 -63h-73q-11 0 -19 -5.5t-11 -15.5l-31 -94q-2 -6 -2 -10q0 -10 6 -18q10 -13 25 -13h532q15 0 25 13q6 8 6 18q0 4 -2 10l-31 94q-3 10 -11 15.5zM693 739.5q34 -37.5 32 -87.5t-38 -85.5t-87 -35.5q-41 0 -75 26h-1q-34 27 -45 69
q-5 17 -22 22q-3 1 -8 1q-13 0 -22 -9q-6 -5 -8.5 -13.5t-0.5 -16.5q9 -35 30.5 -64t53.5 -49l-35 -91q-5 -13 -16 -18q-7 -3 -14 -3q-4 0 -10 2l-175 66q-14 5 -18 17q-3 6 -3 14q0 4 2 10l155 409q4 9 12 14.5t17 5.5q3 0 11 -2l22 59q5 12 16 17q6 3 13 3q5 0 11 -2
l117 -44q11 -4 18 -16q2 -4 2 -12t-2 -12l-22 -59v0q11 -4 18 -16q3 -7 3 -14q0 -4 -2 -10l-13 -35q50 -3 84 -40.5z" />
    <glyph glyph-name="uniF031" unicode="&#xf031;" horiz-adv-x="825" 
d="M715 553l-147 147v19h-62v-31q0 -14 9 -23l147 -147h-437l-1 -196q1 -13 -8 -22t-23 -9q-13 0 -22 9t-9 22v196l147 147q9 9 9 23v93h250q14 0 23 9.5t9 22.5l-1 124q1 26 -17.5 44.5t-44.5 18.5h-250q-26 0 -44 -18t-18 -44v-125q-1 -13 8 -22.5t23 -9.5v-81l-147 -147
q-9 -9 -9 -22v-437q-1 -39 26.5 -66.5t66.5 -27.5h438q39 0 66.5 27.5t27.5 66.5l-1 437q0 13 -9 22zM528 304q9 -9 9 -23q0 -13 -9 -22t-22 -9h-63v-62q0 -13 -9 -22.5t-22 -9.5t-22 9.5t-9 22.5v62h-63q-13 0 -22 9t-9 22t9 22.5t22 9.5h63v62q0 13 9 22t22 9t22 -9t9 -22
v-62l63 -1q13 1 22 -8zM216 146q-9 -9 -23 -9q-13 0 -22 9t-9 22v27q0 13 9 22.5t22 9.5q14 0 23 -9t9 -23l-1 -27q1 -13 -8 -22z" />
    <glyph glyph-name="uniF032" unicode="&#xf032;" horiz-adv-x="1012" 
d="M278 384q-9 -9 -22 -9h-31q-13 0 -22 9t-9 22q-1 13 8 22.5t23 9.5h31q13 0 22 -9.5t9 -22.5t-9 -22zM278 197q-9 -9 -22 -9h-31q-13 -1 -22 8t-9 23q-1 13 8.5 22t22.5 9h31q13 0 22 -9t9 -22t-9 -22zM466 991q-9 9 -22 9h-313q-13 0 -22 -9t-9 -22t9 -22t22 -9v-782
q0 -42 21 -78t57 -57t78 -21q43 0 79 21t57 57t21 78l-1 782q13 -1 22.5 8t9.5 23q0 13 -9 22zM194 625v125h62q13 0 22 9t9 22t-9 22.5t-22 9.5h-62v125h187v-313h-187zM903 991q-9 9 -22 9h-312q-13 0 -22.5 -9t-9.5 -22t9 -22t23 -9v-782q0 -42 20.5 -78t56.5 -57t79 -21
q42 0 78 21t57 57t21 78v782q13 -1 22 8.5t9 22.5t-9 22zM631 438v125h62q13 -1 22.5 8t9.5 23q0 13 -9 22t-22 9h-63v125h62q13 0 22.5 9t9.5 22t-9 22.5t-22 9.5h-63v125h188v-500h-188zM716 197q-9 -9 -22 -9h-32q-13 -1 -22 8.5t-9 22.5t9 22t22 9h31q13 0 22.5 -9
t9.5 -22t-9 -22z" />
    <glyph glyph-name="uniF033" unicode="&#xf033;" horiz-adv-x="1042" 
d="M622 53.5q-9 9.5 -22 9.5h-125v55l-63 5v-60l-125 -1q-13 1 -22 -8t-9 -23q0 -13 9 -22t22 -9h313q13 0 22 9t9 22t-9 22.5zM942 753q0 -19 -3 -39q-11 -53 -42.5 -98t-77.5 -74q23 48 30 102q2 6 0 14q21 31 29 67q2 9 2 27q0 56 -35 99q-6 9 -22 25q-34 30 -80 30
q-44 0 -90 -25.5t-94 -64.5q-8 -6 -25.5 -22t-34.5 -24t-38 -9q-22 -2 -37 8t-15 30q0 7 1 11q5 26 24.5 45.5t40.5 30.5t60 29q111 52 197 52q105 0 164 -78q46 -61 46 -136zM689 133q-40 53 -101 80q-53 23 -113 28v135q79 7 147 44.5t111.5 98t53.5 133.5v3q0 12 -7 22
q-9 11 -24 11h-625q-15 0 -24 -11q-8 -12 -7 -25q9 -62 41.5 -115.5t83.5 -90.5l-4 -4q-37 -39 -37 -91q0 -8 2 -22q5 -35 25 -63.5t51 -44.5q62 -31 134 -34q83 -4 169 -31q105 -45 174 -142v0q-10 66 -50 119zM293 275q-18 10 -30 26.5t-16 36.5l-1 10q0 29 20 51
q5 5 15 13q61 -30 131 -36v-128l-10 1q-57 1 -109 26zM339 464q-6 -2 -10 -2q-6 0 -14 3q-81 35 -126 114q-4 7 -4 15t4.5 15.5t11.5 11.5t16 4q8 0 15.5 -4.5t11.5 -11.5q33 -59 97 -87q12 -7 16 -18q2 -6 2 -11q0 -7 -3 -13v1q-5 -12 -17 -17z" />
    <glyph glyph-name="u1F6BD" unicode="&#xf034;" horiz-adv-x="1169" 
d="M1026.5 798q42.5 -66 42.5 -145v-299q2 -66 -28 -127q-35 -68 -99.5 -108t-140.5 -40q-22 0 -33 2q-262 33 -504 154q-55 28 -94 74q43 15 94 15q40 0 83 -7.5t101 -21.5l168 -40q55 -16 117 -19q28 0 53 6q78 19 116 94.5t38 163.5t-38 163t-116 94q-33 5 -59 5
q-55 0 -111 -17l-168 -41q-83 -23 -174 -28q-13 -1 -22 -10t-8 -22q0 -13 9 -22t23 -9q95 6 186 30l168 41q47 15 96 15q22 0 45 -3q54 -13 80 -70.5t26 -125.5q0 -69 -26 -126.5t-80 -70.5q-21 -3 -42 -3q-52 0 -99 16l-168 40q-81 21 -153 28q-25 62 -22 132
q1 13 -7.5 22.5t-21.5 10.5t-22.5 -8t-10.5 -22q-1 -8 -1 -23q0 -54 17 -110q-28 -1 -65 -10q-10 -2 -13 -2q-16 0 -29.5 9.5t-18.5 25.5q-15 45 -15 92q0 83 44 154.5t120 109.5q230 116 488 152q20 4 46 4q60 0 115 -24q71 -33 113.5 -99z" />
    <glyph glyph-name="uniF035" unicode="&#xf035;" horiz-adv-x="1195" 
d="M641 116l104 -105q10 -8 22 -8q8 0 12 2q108 41 190 123t124 191q2 8 2 11q0 15 -9 22l-104 104zM1095 670q0 -13 -9 -22l-637 -637q-8 -8 -21 -8q-8 0 -12 2q-109 41 -191 123t-123 191q-2 4 -2 12q0 13 8 21l319 319q9 8 9 22q0 13 -9 22t-22 9q-14 0 -22 -9l-170 -171
l-104 104q-9 9 -9 22q0 7 2 11q41 109 123 191t191 124q8 2 11 2q14 0 23 -9l147 -148l148 148q9 9 22 9q4 0 12 -2q108 -42 190 -124.5t124 -190.5q2 -8 2 -11zM581 555q0 15 -12 27q-10 12 -26 12t-27.5 -11.5t-11.5 -27.5t11.5 -27.5t27.5 -11.5q15 0 26 11q12 14 12 28z
M689 445q0 15 -11 26t-26 11q-16 0 -27 -11t-11 -26t11 -26t27 -11q15 0 26 11t11 26zM432 406q16 0 28 12q11 11 11 27t-11.5 27t-27.5 11t-27.5 -11t-11.5 -27t12 -27q12 -12 27 -12zM543 298q14 0 25 11t11 26q0 16 -11 27t-25 11q-16 0 -27 -11t-11 -27q0 -15 11 -26
t27 -11zM691 665q0 15 -11 28q-13 11 -28 11q-16 0 -27.5 -11.5t-11.5 -27.5t11.5 -27.5t27.5 -11.5q17 0 27 12q12 11 12 27zM801 555q0 16 -11 27q-11 12 -28 12q-16 0 -27.5 -11.5t-11.5 -27.5t11.5 -27.5t27.5 -11.5q17 0 28 11q11 13 11 28z" />
    <glyph glyph-name="uniF036" unicode="&#xf036;" horiz-adv-x="923" 
d="M756 102q28 38 48 83q19 53 19 112q0 108 -63 195q-75 105 -186 163q15 14 29 29q37 40 48 94v3q0 14 -9 23q-38 37 -85 68q-43 29 -72 57q-26 24 -46 57q-8 11 -20 14h-5q-12 0 -18 -5q-15 -9 -15 -27q0 -8 5 -16q17 -28 39 -50q-3 -40 -18 -78q-10 -28 -34 -47t-54 -24
q-42 -3 -76 23q-12 8 -17 13q-17 34 -27 67q-5 14 -16 19q-6 3 -14 3q-7 0 -10 -1q-10 -4 -15.5 -12.5t-5.5 -18.5q0 -6 1 -9q25 -72 63 -142q39 -77 59 -129.5t20 -103.5q0 -40 -16 -78q-23 -46 -57 -83l-18 -23q-90 -111 -90 -210q0 -33 12 -68h568q37 46 76 102zM456 313
q0 17 9 32q9 14 23 22t31 8q6 0 16 -2q21 -6 33.5 -22.5t12.5 -38.5q0 22 13 38.5t33 22.5q10 2 16 2q17 0 31.5 -8t22.5 -22q9 -15 9 -32q0 -25 -17 -44l-108 -113l-107 113q-18 18 -18 44z" />
    <glyph glyph-name="uniF037" unicode="&#xf037;" horiz-adv-x="825" 
d="M697.5 27.5q27.5 27.5 27.5 66.5l-1 812q1 39 -26.5 66.5t-66.5 27.5h-438q-39 0 -66 -27.5t-27 -66.5v-812q-1 -39 26.5 -66.5t66.5 -27.5h438q39 0 66.5 27.5zM528 884q-9 -9 -22 -9h-188q-13 0 -22 9t-9 22t9 22.5t22 9.5h188q13 0 22 -9.5t9 -22.5t-9 -22zM590 522
q9 -9 10 -22q0 -13 -9.5 -22t-22.5 -9h-125v-125q0 -13 -9 -22t-22 -9q-13 -1 -22 8.5t-9 22.5v125h-125q-13 0 -22 9t-9 22q-1 13 8.5 22t22.5 9h125v125q0 13 9 22t22 10q13 0 22 -9.5t9 -22.5v-125h125q13 0 22 -9zM653 147q9 -9 9 -22t-9 -22t-22 -9h-188q0 -13 -9 -22
t-22 -9q-13 -1 -22 8.5t-9 22.5h-188q-13 0 -22 9t-9 22t9 22t22 9h438q13 0 22 -9z" />
    <glyph glyph-name="uniF038" unicode="&#xf038;" horiz-adv-x="1137" 
d="M318 241q100 43 211 66q68 17 120 33q3 1 10 1q13 0 22 -9t9 -22q0 -10 -6 -18.5t-16 -11.5q-30 -9 -90 -25l-34 -9q-29 -7 -38 -10l26 -9q61 -19 128 -19h19q66 2 120 31q31 17 51 45t27 63q2 14 2 20q0 40 -24 68q-21 24 -51.5 37.5t-63.5 14.5q-101 -2 -184 -49
q-33 -19 -63 -42l-30 -21l-15 -11q-8 -6 -42 -28q-5 -1 -22 -5q49 52 152 151q45 40 101 58q56 17 108 27q82 13 160 47q11 -10 25 -15.5t28 -5.5q33 0 56 23t23 56q0 32 -23 55t-56 23q-32 0 -55 -23t-23 -55v-1q-70 -29 -148 -43l-23 -5q-31 -7 -41 -10q79 82 144 166l3 4
q9 -3 19 -3q32 0 55.5 23.5t23.5 55.5q0 33 -23.5 56.5t-55.5 23.5t-55.5 -23.5t-23.5 -56.5v-1q0 -19 10 -37l-3 -4q-65 -84 -138 -159v2l6 68q4 37 10 119q23 8 38 28.5t15 45.5q0 32 -23 55t-55 23t-55 -23t-23 -55q0 -22 11 -40.5t30 -28.5q-6 -82 -10 -118l-6 -69
q-2 -46 -18 -88q-34 -34 -52 -50l-26 -26q-115 -112 -184 -191l3 16q2 33 -4 60q-20 86 -20 171q0 20 2 58q1 12 10.5 20t21.5 8q13 0 22 -9.5t9 -22.5v-3q-3 -28 -3 -57q0 -57 10 -107q2 3 4.5 7.5t6.5 9.5q25 42 30 52q53 100 53 206q0 24 -3 48q-3 52 -40 86
q-30 22 -65 22q-19 0 -40 -8q-44 -20 -73 -56q-34 -36 -54 -82.5t-22 -96.5q6 -91 54 -172q26 -49 41 -100q-5 -104 -52 -193q-42 -62 -70 -122q-3 -7 -3 -14q0 -13 9 -22t22 -9q9 0 16.5 5t11.5 13q20 40 31 59q38 64 68 103q16 22 25 33q15 18 35 28z" />
    <glyph glyph-name="uniF039" unicode="&#xf039;" horiz-adv-x="950" 
d="M850 750v-719q0 -13 -9 -22t-22 -9h-688q-13 0 -22 9t-9 22v938q0 13 9 22t22 9h469q13 0 22 -9l219 -219q9 -9 9 -22zM600 750h175l-175 175v-175zM559.5 165q9.5 9 9.5 22t-9 22.5t-22 9.5h-282q-13 0 -22 -9t-9 -22t9 -22.5t22 -9.5h281q13 0 22.5 9zM716 321.5
q9 9.5 9 22.5t-9 22t-22 9h-438q-13 0 -22 -9t-9 -22t9 -22t22 -9h438q13 -1 22 8.5zM716 478q9 9 9 22t-9 22t-22 9h-438q-13 0 -22 -9t-9 -22t9 -22t22 -9h438q13 0 22 9zM466 772q-9 9 -22 9h-63v63q0 13 -9 22t-22 9t-22 -9t-9 -22v-63h-63q-13 0 -22 -9t-9 -22t9 -22
t22 -9h63v-63q0 -13 9 -22t22 -9t22 9t9 22v63h63q13 0 22 9t9 22t-9 22z" />
    <glyph glyph-name="uniF040" unicode="&#xf040;" 
d="M1070 906q2 4 2 12t-4.5 16t-11.5 12l-98 50q-7 4 -15 4q-14 0 -24 -13l-201 -268h274zM734 478q9 -9 22 -9h344q0 -5 -1 -7q-21 -93 -72 -158t-140 -125q-38 -23 -80 -42q-17 -9 -17 -28q0 -7 3 -13q4 -8 12 -13t16 -5q7 0 13 3q28 13 47 24v-42q0 -26 -18 -44.5
t-44 -18.5h-438q-26 0 -44 18.5t-18 44.5v113q-93 63 -145 127.5t-73 158.5q-1 2 -1 7v93q0 39 27.5 66.5t66.5 27.5h812q39 0 66.5 -27.5t27.5 -65.5v-32h-344q-13 0 -22 -9t-9 -22t9 -22zM747 397q-9 9 -22 9h-94v94q0 13 -9 22t-22 9t-22 -9t-9 -22v-94h-94q-13 0 -22 -9
t-9 -22t9 -22t22 -9h94v-94q0 -13 9 -22t22 -9t22 9t9 22v94h94q13 0 22 9t9 22t-9 22zM466 478q9 9 9 22t-9 22t-22 9h-250q-13 0 -22 -9t-9 -22q-1 -13 8.5 -22t22.5 -9h250q13 0 22 9z" />
    <glyph glyph-name="uniF041" unicode="&#xf041;" horiz-adv-x="950" 
d="M818 968q-32 32 -77 32h-532q-45 0 -77 -32t-32 -77v-625q0 -41 26.5 -71.5t67.5 -36.5v-33q0 -13 9 -22t22 -9t22 9t9 22v31h94v-62q0 -13 9 -22t22 -9h63v-32q0 -13 9 -22t22 -9t22 9t9 22v32h63q13 -1 22 8.5t9 22.5v62h141q45 0 77 32t32 78v625q0 45 -32 77z
M591 853q-9 -9 -22 -9h-188q-13 0 -22 9t-9 22t9 22t22 9h188q13 0 22 -9t9 -22t-9 -22zM557 452q12 -21 12 -46q0 -20 -8.5 -39t-24.5 -32q-25 -22 -61 -22q-34 0 -58 20q-17 13 -26.5 33t-9.5 41q0 23 10 42l80 156zM779 447q-9 -9 -23 -9h-93q-13 -1 -22.5 8t-9.5 23
q0 13 9.5 22t22.5 9h93q13 0 22.5 -9t9.5 -22t-9 -22zM310 447q-9 -9 -22 -9h-94q-13 -1 -22 8t-9 23q-1 13 8.5 22t22.5 9h93q13 0 22.5 -9t9.5 -22t-9 -22z" />
    <glyph glyph-name="uniF042" unicode="&#xf042;" horiz-adv-x="1009" 
d="M335 375h217q32 0 58.5 -17.5t40.5 -46.5l118 97l3 2q15 44 15 90q0 79 -43 150l-212 335q-9 14 -26 14t-26 -14l-212 -335q-43 -68 -43 -151q0 -75 37 -139q35 15 73 15zM909 307q-2 -27 -22 -44l-245 -198q-42 -34 -96 -34h-290l-35 -28q-50 17 -83 58.5t-38 94.5
l151 126q34 29 83 31h218q20 0 33.5 -13.5t13.5 -33.5v-10q-4 -16 -16.5 -26.5t-29.5 -10.5h-172q-13 0 -22 -9t-9 -22t9 -22.5t22 -9.5h172q37 0 65.5 22.5t39.5 57.5l150 123q19 14 39 14q28 0 46 -20v0v0q19 -19 16 -46zM346 568q-18 0 -27 17q-4 10 -4 15q0 10 6 17
l16 25q9 14 26 14q9 0 17 -5q15 -10 15 -26q0 -8 -5 -16l-16 -26q-9 -15 -28 -15zM443.5 701.5q-7.5 -4.5 -16.5 -4.5q-18 2 -26 17q-4 7 -4 15q0 9 5 17l60 94q9 15 26 15q9 0 17 -5q15 -10 15 -27q0 -8 -5 -16l-60 -94v0q-4 -7 -11.5 -11.5z" />
    <glyph glyph-name="u1F9E0" unicode="&#xf043;" 
d="M1073.5 353q-13.5 -16 -32.5 -24q-18 -9 -39 -9q-19 0 -39 9q-27 12 -46 36q-9 11 -24 11q-7 0 -13 -3q-24 -10 -53 -10q-30 0 -57 12q-8 5 -16 5q-7 0 -15 -5t-12 -12.5t-3 -15.5q0 -8 4.5 -15.5t12.5 -11.5q42 -20 88 -20q26 0 55 8q40 -39 95 -51q-17 -23 -41.5 -37
t-52.5 -18q-6 -1 -18 -1q-22 0 -38 5q8 -66 8 -124l-90 -23q-28 163 -118 308q-25 -7 -56 -7q-53 0 -99 25q-25 17 -44 39q-35 43 -35 97q0 36 17 70q14 23 37 37t50 15q22 -1 41.5 -11.5t33.5 -28.5q8 -11 21 -13h4q13 0 20 7q29 23 70 23q11 0 17 -1q13 -2 23.5 6t11.5 21
t-7 23t-21 12q-16 2 -24 2q-42 0 -84 -21q-24 23 -55 33q18 23 44 30q9 4 14.5 12t5.5 17q0 7 -1 10q-2 10 -10.5 16t-19.5 6q-5 0 -8 -1q-30 -9 -54 -30t-39 -50q-38 -6 -70 -27t-53 -53q-29 -48 -31 -104l-4 1q-22 2 -35 4q-67 6 -121 41q-32 19 -50 52t-18 71
q2 40 25.5 70.5t68.5 27.5q41 -4 73 -36q5 -5 13 -7.5t15 -0.5q16 3 23 18q1 5 7.5 10.5t20.5 6.5q12 0 22 10t8 23q0 12 -10 22q-10 8 -23 7q-33 0 -60 -22q-32 22 -67 28q26 31 63.5 46t77.5 12q31 47 84 62q22 5 39 5q41 0 76 -20q36 13 77 13q49 0 95 -20l9 -6
q-23 -23 -34 -54q-3 -12 3 -22.5t17 -14.5q8 -2 11 -2q9 0 16.5 5t11.5 14q6 16 16 27q20 23 52 23q26 0 55 -15q46 -24 75 -68l6 -12q-35 -9 -63.5 -30.5t-46.5 -52.5q-17 -3 -34 -9q-9 -4 -14.5 -11.5t-5.5 -17.5q0 -6 3 -12q4 -9 12 -14t17 -5q4 0 12 2q14 6 29 6
q34 0 57 -23q9 -10 22 -10q5 0 8 1q18 5 23 22q1 3 1 8q0 14 -10 23q-21 21 -49 31q14 14 34 24q16 8 32 8q13 0 22 -4q28 -9 39 -37q21 -36 21 -78l-1 -14q11 -14 18 -30q6 -22 8 -54q-23 10 -50 10q-34 -1 -63.5 -20t-44.5 -51q-2 -4 -2 -13q0 -12 5 -18q11 -15 29 -13
q8 1 15 6t10 13q7 15 21 24t31 10q21 0 32.5 -24t11.5 -54q0 -13 -3 -24q-5 -20 -18.5 -36z" />
    <glyph glyph-name="uniF044" unicode="&#xf044;" horiz-adv-x="1198" 
d="M534 443q-34 72 -91 106l1 4l1 31l1 26q28 26 43.5 62.5t13.5 75.5q-3 48 -31 87.5t-72 56.5q-32 12 -65 12q-61 0 -109 -36q-38 -30 -62 -71q-64 -104 -64 -228q0 -75 23 -141q25 -79 88 -130q48 -35 105 -35q27 0 57 10q34 12 57 39.5t30 62.5q3 15 3 29q0 29 -10 53
q27 -39 40.5 -84t11.5 -92v-250q0 -13 9 -22t22 -9t22.5 9t9.5 22v250q0 90 -34 162zM1098 569q0 -75 -23 -141q-25 -79 -88 -130q-48 -35 -105 -35q-27 0 -57 10q-34 12 -57 39.5t-30 62.5q-3 15 -3 29q0 29 10 53q-27 -39 -40.5 -84t-11.5 -92v-250q0 -13 -9 -22t-22 -9
t-22.5 9t-9.5 22v250q0 90 34 162t91 106l-1 4l-1 31l-1 26q-28 26 -43.5 62.5t-13.5 75.5q3 48 31 87.5t72 56.5q32 12 65 12q61 0 109 -36q38 -30 62 -71q64 -104 64 -228zM213 532.5q-9 -8.5 -22 -9.5h-1q-13 1 -21.5 10.5t-8.5 22.5q0 6 0.5 15t2.5 21q0 13 11 21
q10 8 23 7q11 -1 21 -11q8 -12 7 -23q-2 -22 -2 -32q-1 -13 -10 -21.5zM243 686.5q-7 -4.5 -15 -4.5h-3q-17 0 -25 14q-5 8 -5 17q0 8 4 15q19 40 58.5 80.5t93.5 40.5q9 0 14 -1q18 -1 26 -18q2 -4 2 -13q0 -10 -6 -19q-11 -14 -29 -12q-29 4 -57 -22.5t-47 -64.5v0
q-4 -8 -11 -12.5zM825 680q4 7 4 16q0 7 -3 14q-6 11 -8 28t6 32.5t23 24.5q14 9 14 26q0 11 -5 17q-9 15 -26 15q-9 0 -17 -5q-29 -18 -44.5 -48.5t-12.5 -64.5q1 -27 14 -54q10 -16 28 -16v0q18 0 27 15z" />
    <glyph glyph-name="uniF045" unicode="&#xf045;" 
d="M1068 562.5q32 42.5 32 84.5q0 6 -2 18q-5 26 -29 47t-78 23l-207 8q-8 1 -23 1q-30 0 -54 -7l-12 -3q-17 -5 -22 -7q-44 48 -101 77q-64 40 -139 60q-23 5 -54 5q-81 0 -149 -44q-61 -43 -95.5 -108.5t-34.5 -139.5q0 -23 5 -53q12 -50 30 -100q4 -14 14 -42
q20 -67 29 -133q5 -39 16 -67.5t42 -42.5q18 -8 34 -8q47 0 103 56q80 79 175 142l14 9q19 12 57 40q-26 68 -26 146q0 65 17 120q3 8 10 13.5t15 6.5l6 1q13 0 23 -12q7 -8 7 -20q0 -4 -2 -12q-15 -48 -15 -99q0 -45 13 -95q5 -16 15.5 -27.5t26.5 -15.5q12 -3 24 -3
q15 0 26 4q41 14 75 40l29 19q30 17 72 32q29 11 57 24q44 20 76 62.5zM262 383q-11 0 -20 7.5t-11 18.5q-3 18 -11 34q-3 6 -3 14t5 18q4 7 12 10.5t16 2.5q18 -1 26 -18q13 -25 17 -51q2 -13 -5.5 -23.5t-20.5 -12.5v0h-5zM186 556q-9 9 -9 22q1 53 24.5 99t65 77.5
t92.5 41.5q13 2 23.5 -5t13.5 -19q2 -13 -5 -23.5t-19 -13.5q-57 -11 -94 -55t-38 -102q0 -13 -9.5 -22t-22.5 -9v0q-13 0 -22 9zM771 557.5q-9 -7.5 -21 -7.5h-4q-13 1 -21 11.5t-6 23.5q5 30 19.5 55t38.5 42q8 6 18 6q17 0 26 -14q6 -7 6 -18q0 -16 -14 -25
q-28 -21 -32 -54v0q-1 -12 -10 -19.5z" />
    <glyph glyph-name="uniF046" unicode="&#xf046;" horiz-adv-x="1191" 
d="M1033 268q-9 -9 -21 -9q-13 0 -22 9t-9 22t9 22q53 51 83 118q8 19 8 38q0 9 -1 14q-6 36 -11 53q-24 109 -88 200.5t-157 151.5q-21 14 -48 14q-30 0 -51 -17q-18 -13 -27.5 -33t-8.5 -43v-112q-28 10 -45 34t-17 53v186q0 13 -9 22t-22 9t-22 -9t-9 -22v-186
q-1 -29 -17.5 -53t-44.5 -34v112q0 23 -9.5 43t-27.5 33q-21 17 -51 17q-27 0 -48 -14q-93 -60 -156.5 -151.5t-88.5 -200.5q-24 -91 -22 -191v-230q-1 -23 10.5 -42.5t31.5 -29.5q18 -7 32 -7q29 0 48 18q62 52 129 89q-40 25 -75 57q-10 10 -10 24q0 13 9 22t22 9
q12 0 21 -9q23 -22 52 -41q19 -13 42 -13q16 0 31.5 7t25.5 20q34 45 34 100v131q-31 -9 -64 -12q-12 -1 -36 -1h-4q-13 0 -22 9t-9 22t9 22t22 9v0h4q20 0 30 1q3 0 13 2q24 3 40.5 21.5t16.5 43.5v66q27 5 51 20.5t42 38.5q17 -23 41 -38.5t52 -20.5v-314q-1 -48 25 -88.5
t70 -60.5q103 -45 185 -116q21 -18 48 -18q15 0 32 7q20 10 31.5 29.5t10.5 42.5v223q-26 -39 -58 -69zM256 562.5q-8 -5.5 -17 -5.5q-13 0 -22 9t-9 22q0 9 2 12q4 11 14 33q10 17 28 17q13 0 22 -9t9 -22q0 -7 -3 -13q-10 -23 -12 -29q-4 -9 -12 -14.5zM325 698
q-13 0 -22 9t-9 22q0 14 9 21q41 47 91 82q10 7 19 7q13 0 22 -9t9 -22q0 -18 -14 -27q-45 -30 -81 -72q-9 -11 -24 -11z" />
    <glyph glyph-name="heart" unicode="&#xf047;" horiz-adv-x="1000" 
d="M220 469q17 0 33 6q8 2 11 2q13 0 22 -9t9 -22q0 -10 -6 -18.5t-16 -11.5q-27 -10 -60 -10q-9 0 -27 2q17 -129 89 -232q28 -46 52 -77.5t61 -58.5t87 -37q15 -3 31 -3q54 0 98 37t73.5 84.5t63.5 115.5l17 34q54 104 52 220q0 22 -12 41.5t-32 30.5q-39 21 -58 21
t-36 -24q-8 -14 -26 -14q-13 0 -22 9t-9 22q0 9 5 17q35 52 86 52q33 0 79 -23q2 -1 6 -1q9 0 17 5q28 15 44 41.5t16 57.5q0 20 -7 38q-4 13 -18 20q-27 11 -48 17q-19 4 -43 4q-70 0 -127 -39q-44 -31 -73 -76t-38 -98q-2 -11 -11 -18.5t-20 -7.5l-5 1q-11 2 -18.5 11
t-7.5 20q0 3 1 5q11 65 47 121t90 94q59 39 129 47q-31 29 -71 38l10 55v5q0 13 -9 22.5t-22 9.5q-11 0 -20 -7.5t-11 -18.5l-11 -63q-23 -3 -43 -9l-21 78q-3 11 -11.5 17.5t-18.5 6.5q-13 0 -22.5 -9t-9.5 -23q0 -4 2 -8l24 -87l-22 -14q-21 -16 -27 -40q-6 -22 -14 -68
l-2 -12q-1 -11 -10 -18.5t-20 -7.5h-6q-12 2 -19.5 12.5t-5.5 23.5l2 12q6 58 29 113q-26 54 -69 104q-10 10 -21 10q-6 1 -18 1q-40 0 -72.5 -23.5t-44.5 -61.5q-2 -4 -2 -11q0 -13 9 -22q29 -26 29 -79q0 -35 -12 -73.5t-27 -68.5q-22 -36 -28 -82l-1 -11q0 -22 9.5 -41
t27.5 -32q23 -14 50 -14zM433 96q-14 0 -23 9q-31 33 -57 69q-5 8 -5 18q0 13 9 22t22 9q16 0 26 -13q26 -39 50 -61q9 -9 9 -22t-10 -23q-10 -8 -21 -8zM322 271q-10 0 -18 5.5t-11 15.5l-8 21q-1 3 -1 10q0 13 9 22t22 9q10 0 18.5 -6t11.5 -16l6 -19q2 -8 2 -11
q0 -9 -5.5 -17t-14.5 -12q-8 -2 -11 -2z" />
    <glyph glyph-name="uniF048" unicode="&#xf048;" horiz-adv-x="1167" 
d="M428 371q-41 8 -74 22q5 32 5 58v5q41 -19 82 -26q10 -2 17 -10.5t7 -19.5q0 -12 -9 -21t-22 -9q-4 0 -6 1zM466 588q-10 2 -16 10t-6 19q0 5 1 8l4 22q32 -3 62 -3l-8 -35q-3 -10 -11 -16t-18 -6q-6 0 -8 1zM707 522q0 11 6 18q12 15 12 34q0 13 -6 23q-14 22 -20 47
l-2 4l62 6q2 -11 10 -24q17 -28 17 -58q0 -38 -25 -68q-9 -12 -24 -12q-10 0 -18 6q-12 9 -12 24zM1067 726q0 -30 -4 -94l-3 -56q-1 -62 -18 -124q-21 -59 -66.5 -102.5t-104.5 -62.5q-105 -35 -221 -38q-13 0 -21.5 -8.5t-8.5 -21.5q0 -12 9 -21t21 -9v0h1q21 0 42 3
q-1 -14 -5 -37q-6 -41 -31 -70l-17 -16q-4 -4 -14 -18q-14 -19 -19 -23q-11 -10 -21 -10q-14 0 -24.5 12t-24.5 36q-3 5 -17 24q-6 7 -16 21q-18 27 -16 59q0 48 2 73q-81 3 -156 35q-18 8 -32 18q23 21 36 48l22 -12q67 -27 138 -29q10 41 30 71q8 11 17 20l-3 13
q-4 22 -8 34.5t-13 18.5q-46 26 -100 29q-12 1 -20.5 9.5t-8.5 20.5q0 13 9 21.5t22 8.5h1q57 -3 110 -28q30 24 41 62q3 9 10.5 15t17.5 6q13 0 22 -9t9 -21q0 -3 -2 -9q-14 -49 -51 -83q17 -30 21 -63q3 1 10 1q8 1 26 1q81 4 135.5 16t90.5 49q17 17 23 43.5t8 61.5
q4 37 4 85q29 5 50 13q9 4 14.5 11.5t5.5 17.5q0 12 -9 21t-21 9q-3 0 -11 -2q-75 -28 -154.5 -35t-203.5 -8h-45q-83 0 -143 6t-115 26q-4 2 -11 2q-12 0 -21 -8.5t-9 -21.5q0 -9 5.5 -17t14.5 -11q28 -11 57 -17l-4 -210q-1 -45 -10.5 -72t-40.5 -51q-22 -20 -52 -20
q-37 0 -61 29q-35 41 -35 141q0 27 2 63q1 18 -1 64l-1 62q0 83 16 143t62 90q31 20 84 20q33 0 71 -5q108 -12 219 -12q81 0 174 8q80 11 154 11q20 0 62 -2q95 -10 114 -90q11 -47 11 -105z" />
    <glyph glyph-name="uniF049" unicode="&#xf049;" horiz-adv-x="1144" 
d="M202 105q9 9 9 22q0 2 -1 3q-2 23 7 40q8 20 24.5 31.5t37.5 11.5q41 -6 65 -37q7 -7 40 -42q37 -40 63 -63.5t59 -38.5q49 -20 100 -20q76 0 141 41q107 68 177 176q72 91 108 208q12 41 12 83q0 78 -38 145q-57 80 -143 129q-49 28 -82.5 73.5t-45.5 101.5
q-3 11 -11.5 17.5t-18.5 6.5h-63q-13 0 -21.5 -9t-8.5 -22v-2q1 -33 7 -71t7 -46q14 -88 14 -134q0 -13 -2 -37q-7 -71 -43.5 -132t-95.5 -102q-34 -24 -72 -39.5t-97 -34.5l-47 -16q-82 -22 -143 -88q-42 -60 -40 -134q0 -13 9 -21.5t22 -8.5h49q13 0 22 9zM438 267
q-13 0 -22 8.5t-9 21.5q0 10 5.5 18t15.5 11l34 14q8 2 12 2q13 0 22 -9t9 -22q0 -9 -5.5 -16.5t-13.5 -11.5l-38 -15q-3 -1 -10 -1zM592 353q-12 0 -21 8.5t-9 21.5q0 15 11 24q49 40 80 97q10 16 27 16q13 0 22 -9t9 -22q0 -9 -4 -14q-36 -66 -94 -115q-8 -7 -21 -7z" />
    <glyph glyph-name="uniF050" unicode="&#xf050;" horiz-adv-x="919" 
d="M783 336q0 35 -1 52q0 55 -6 113l-1 13q-18 -24 -28 -36q-10 -10 -24 -10q-13 0 -22 9t-9 22q0 10 8 20q67 79 97 179q22 56 22 119q0 31 -6 62q-10 50 -34.5 76t-53.5 34q-16 4 -38 4q-51 0 -98 -28q39 -32 68 -74q5 -8 5 -18q0 -13 -9 -22t-22 -9q-17 0 -26 14
q-14 22 -31 39q-52 53 -124 78q-63 21 -131 24l-24 1q-117 0 -166 -67q-29 -46 -29 -100q0 -10 2 -28q7 -65 34.5 -123.5t73.5 -104.5q10 -10 10 -22q0 -13 -9 -22.5t-22 -9.5q-12 0 -22 10q-12 11 -32 35q-6 -44 -8 -65q-8 -77 -8 -144q0 -106 18 -213q17 -99 64 -128
q20 -12 42 -12t41 9q36 15 52 54q25 70 41 156q21 93 75 169q1 -1 8 -11q34 -53 55 -118q7 -21 12.5 -47t7.5 -35q8 -39 14.5 -64.5t17.5 -49.5q13 -36 53 -54q18 -9 38 -9q25 0 44 12q26 21 42 50t20 62q19 101 19 208zM223 702q-18 0 -26 15q-33 48 -30 108q2 33 20.5 60
t48.5 40q8 2 12 2q13 0 22 -9t9 -22q0 -10 -5.5 -17.5t-13.5 -11.5q-14 -7 -22 -19.5t-9 -28.5q-1 -35 20 -70q5 -7 5 -16q0 -8 -4 -15t-11 -11q-8 -5 -16 -5z" />
    <glyph glyph-name="uniF051" unicode="&#xf051;" horiz-adv-x="924" 
d="M704 519q-8 -10 -8 -21q0 -13 9 -22t22 -9q16 0 25 10q3 3 28 37l1 -13q5 -54 7 -114l1 -44q0 -106 -20 -218q-4 -33 -20 -62.5t-43 -50.5q-19 -12 -44 -12q-20 0 -38 9q-40 18 -54 54q-11 25 -18 51.5t-15 66.5q-2 10 -7.5 35t-11.5 45q-20 64 -55 119l-8 11
q-55 -77 -76 -170q-16 -85 -41 -158q-7 -18 -21.5 -32t-32.5 -22q-18 -9 -40 -9t-42 12q-48 29 -65 129q-18 108 -18 219q0 66 8 141q2 21 8 65q20 -24 33 -35q10 -10 22 -10q13 0 22 9t9 22t-10 23q-46 45 -74 104.5t-35 125.5q-2 18 -2 28q0 54 29 101q49 67 167 67l25 -1
l39 -3l-111 -166q-5 -10 -5 -18q0 -13 9 -22l138 -138l-48 -73q-5 -8 -5 -17q0 -13 9 -22t22 -9q17 0 26 14l63 93q5 8 5 17q0 14 -10 23l-137 138l110 166v1q11 -3 26 -8q74 -25 125 -79q19 -19 32 -39q10 -13 26 -13q13 0 22 9t9 22q0 9 -5 17q-31 45 -69 75q48 28 99 28
q22 0 38 -4q30 -8 54.5 -34t35.5 -77q5 -33 5 -61q0 -62 -21 -121q-32 -103 -99 -180z" />
    <glyph glyph-name="u1F443" unicode="&#xf052;" horiz-adv-x="1054" 
d="M954 287q0 -14 -1 -21q-7 -40 -32 -74q-29 -40 -73.5 -62.5t-93.5 -21.5h-5q25 43 64 71q13 9 13 25q0 10 -5 18q-9 14 -26 14q-9 0 -17 -5q-26 -17 -43.5 -39t-42.5 -61q-17 -27 -29.5 -44.5t-27.5 -32.5q-43 -49 -108 -54q-32 2 -60 16t-48 38q-24 25 -56 76
q-25 38 -43 61t-44 40q-8 5 -17 5q-17 0 -26 -14q-5 -8 -5 -18q0 -16 13 -25q40 -29 64 -71h-4q-49 -1 -94 21.5t-74 62.5q-25 34 -32 74q-1 7 -1 21q0 63 37 110q29 38 70 72q60 116 101 240q31 86 55 141q19 52 54 96q20 25 49 39t61 15q32 -1 61 -15t49 -39
q34 -43 54 -96q24 -55 55 -141q40 -120 101 -240q41 -34 70 -72q37 -47 37 -110z" />
    <glyph glyph-name="u1F442" unicode="&#xf053;" horiz-adv-x="898" 
d="M679 26q42 27 62.5 80.5t18.5 108.5q-3 36 -3 72q0 73 14 149q22 96 26 188l1 21q0 76 -37 145q-34 59 -84 105t-111 75v0q-66 30 -138 30q-54 0 -105 -17t-94 -50q-61 -46 -95 -115.5t-34 -146.5q0 -29 4 -52q22 -152 158 -315l39 -45q55 -61 96 -125l11 -19
q21 -41 50 -72q25 -22 55.5 -33t63.5 -10q55 -2 102 26zM693 338q2 -4 2 -12t-2 -12l-7 -26q-2 -33 -24.5 -57t-55.5 -29q-5 -1 -16 -1q-29 -1 -55 14t-39 40q-7 19 -11 45q0 21 -12 37q-12 12 -31 24q-22 12 -35 25q-23 22 -35 51t-10 61q1 31 14.5 58t37.5 46q36 27 81 27
q60 0 124 -47q6 29 6 58q-2 51 -26.5 94.5t-65.5 72.5t-91 36q-16 2 -24 2q-52 0 -95 -31q-35 -25 -54 -63t-19 -80t19 -79q5 -8 5 -17q0 -5 -4 -15q-9 -17 -28 -17q-19 2 -27 17q-28 53 -28 112q0 56 26 107.5t73 85.5q60 43 132 43q18 0 34 -3q65 -10 117.5 -47t84 -93.5
t33.5 -121.5q-3 -101 -46 -185l-4 -10q-4 -9 -11.5 -14.5t-17.5 -5.5q-6 0 -12 3q-9 4 -14 12t-5 17q0 4 2 12l4 10l15 36q-57 49 -104 49q-24 0 -42 -14q-13 -11 -20 -26t-7 -31q-3 -36 23 -64q16 -13 27 -18q28 -17 46 -37q23 -31 26 -68q2 -15 6 -28q8 -10 19.5 -14.5
t23.5 -2.5q14 2 19 8.5t11 30.5q3 17 9 33q4 9 12 14.5t17 5.5q3 0 11 -2q11 -4 18 -16z" />
    <glyph glyph-name="u1F441" unicode="&#xf054;" 
d="M1100 548l-1 -6q-25 -110 -84.5 -196.5t-136.5 -141.5t-155 -76q-74 -20 -148 -20q-136 3 -258.5 62.5t-208.5 164.5q-1 0 -1 1q-2 3 -4 7l-2 3q-1 4 -1 12v1v0v0q14 120 67 222t136.5 170t183.5 91q55 13 114 13q101 0 198.5 -36t175.5 -102.5t122 -153.5v0q0 -2 1 -3
l2 -8v-4zM838.5 252q65.5 46 117.5 119t77 166q-59 47 -133 72q6 -31 6 -61q0 -70 -28.5 -132.5t-80 -108.5t-119.5 -67q-43 -14 -94 -14q-96 0 -176.5 52.5t-119.5 142.5q77 75 172 114q4 -41 33 -71t70 -38q14 -2 22 -2q35 0 65 19t46 51q13 26 13 55q0 26 -10.5 50
t-30.5 42q-40 -2 -74 -7q-132 -16 -243.5 -89t-180.5 -186q85 -91 190.5 -139.5t216.5 -48.5q69 0 130 17q66 18 131.5 64z" />
    <glyph glyph-name="uniF055" unicode="&#xf055;" horiz-adv-x="893" 
d="M761 471q18 0 26 -14q6 -7 6 -18q0 -7 -3 -13q-7 -16 -27 -18h-13q-20 -63 -49 -118q-58 82 -64 183q-1 13 -11 21.5t-23 6.5q-13 -1 -21 -10.5t-7 -22.5q3 -65 27 -125t66 -110q-91 -142 -237 -229q-8 -5 -16 -5q-5 0 -15 4q-8 5 -12.5 12.5t-3.5 15.5q0 8 4.5 15.5
t11.5 11.5l23 15q-60 19 -112 55t-92 84q-36 45 -59 97q-60 132 -60 275q0 159 72 300q-27 35 -44 72q-2 4 -2 13q0 12 5 18q10 15 29 13q17 -2 25 -18q34 -73 99.5 -130t171.5 -125q108 -69 176.5 -125t112.5 -132l13 1h3z" />
    <glyph glyph-name="uniF056" unicode="&#xf056;" 
d="M828 210q-9 -9 -9 -22t9 -22.5t22 -9.5t22 9.5t9 22.5t-9 22t-22 9t-22 -9zM1065 310q35 -52 35 -114v-87q0 -45 -32 -77t-77 -32h-782q-45 0 -77 32t-32 77v86q0 62 34 113.5t91 75.5l24 -58q-21 -16 -32 -38.5t-11 -48.5q0 -19 6 -37l48 -132q4 -9 11.5 -14.5
t17.5 -5.5q8 0 11 1l30 11q9 4 14.5 12t5.5 17q0 3 -2 11q-4 10 -12 15.5t-18 5.5q-4 0 -10 -2l-37 103q-2 5 -2 15q0 14 8.5 26.5t21.5 17.5q5 2 15 2q15 0 27.5 -8t17.5 -21l37 -103q-9 -4 -14.5 -12t-5.5 -17q0 -3 2 -11q4 -10 12 -15.5t18 -5.5q4 0 10 2l29 11
q10 4 15.5 11.5t5.5 17.5q0 3 -2 11l-48 132q-13 34 -43.5 54t-66.5 17l-25 59l68 27q54 22 82 73q-34 49 -50 105q-11 3 -20 9q-15 8 -23.5 23.5t-7.5 32.5q2 15 11 28.5t23 21.5q1 74 33 137t85 99.5t116 36.5q51 -4 102 -23q29 -10 63 -10q26 0 50 6q-7 -40 -37 -71
q54 -77 56 -175q28 -17 34 -50q1 -17 -7.5 -32.5t-23.5 -23.5q-9 -6 -20 -9q-17 -57 -50 -105q28 -51 82 -73l45 -18l-44 -135q-34 1 -60 -21t-32 -56q-1 -5 -1 -16q0 -30 16.5 -54t44.5 -34q13 -5 31 -5q25 0 46.5 12.5t34.5 34.5t13 46q0 21 -9 40t-25 32l44 133l19 -8
q58 -23 93 -75zM453 600.5q25 -58.5 64.5 -95t82.5 -36.5t82.5 36.5t64.5 95t25 120.5q0 36 -11 75q-27 9 -60 28q-23 11 -39 28q-93 -61 -204 -80l-25 -3q-5 -27 -5 -48q0 -62 25 -120.5zM772 407q-26 19 -48 51q-26 -24 -58 -37.5t-66 -14.5q-34 1 -66 14.5t-58 37.5
q-22 -32 -48 -51l172 -147z" />
    <glyph glyph-name="uniF057" unicode="&#xf057;" 
d="M828 210q-9 -9 -9 -22t9 -22.5t22 -9.5t22 9.5t9 22.5t-9 22t-22 9t-22 -9zM1065 310q35 -52 35 -114v-87q0 -45 -32 -77t-77 -32h-782q-45 0 -77 32t-32 77v86q0 62 34 113.5t91 75.5l24 -58q-21 -16 -32 -38.5t-11 -48.5q0 -19 6 -37l48 -132q4 -9 11.5 -14.5
t17.5 -5.5q8 0 11 1l30 11q9 4 14.5 12t5.5 17q0 3 -2 11q-4 10 -12 15.5t-18 5.5q-4 0 -10 -2l-37 103q-2 5 -2 15q0 14 8.5 26.5t21.5 17.5q5 2 15 2q15 0 27.5 -8t17.5 -21l37 -103q-9 -4 -14.5 -12t-5.5 -17q0 -3 2 -11q4 -10 12 -15t18 -5q7 0 10 1l29 11q10 4 15.5 12
t5.5 18q0 4 -2 10l-48 132q-13 34 -43.5 54t-66.5 17l-25 59l68 27q45 18 73 60q-78 24 -143 55q-14 7 -17 19q-2 6 -2 10q0 8 5 15q40 71 69 149q25 68 57 128q18 35 46.5 63t63.5 45q45 22 97 22q53 0 97 -22q74 -38 110 -108q27 -50 57 -128q29 -78 69 -149q4 -7 4 -16
q0 -6 -1 -9q-5 -13 -17 -19q-66 -32 -144 -55q30 -42 74 -60l45 -18l-44 -135q-34 1 -60 -21t-32 -56q-1 -5 -1 -16q0 -30 16.5 -54t44.5 -34q13 -5 31 -5q25 0 46.5 12.5t34.5 34.5t13 46q0 21 -9 40t-25 32l44 133l19 -8q58 -23 93 -75zM450 714q-1 -54 16 -105t50 -94
q15 -20 37 -32.5t47 -13.5q32 0 58.5 24t41.5 50q52 85 52 187q0 17 -1 26q-35 19 -62 52q-106 -80 -239 -94zM772 407q-31 24 -53 58q-22 -27 -53 -42t-66 -17q-34 1 -66 16t-55 41q-19 -30 -51 -56l172 -147z" />
    <glyph glyph-name="uniF058" unicode="&#xf058;" horiz-adv-x="1170" 
d="M970 464.5q55 -35.5 81 -94.5q19 -41 19 -88q0 -41 -15 -79.5t-43 -68.5q-31 -34 -73.5 -53t-87.5 -19q-35 0 -70 12q-11 -33 -39.5 -53.5t-63.5 -20.5h-468q-46 0 -78 32t-32 77v782q0 45 32 77t78 32h468q46 0 78 -32t32 -77v-400q30 9 62 9q65 0 120 -35.5zM525 825.5
q-18 -18.5 -18 -44.5q-1 -25 17.5 -43.5t44.5 -18.5t44 18t18 44q1 26 -17.5 44.5t-44.5 18.5t-44 -18.5zM525 544.5q-18 -18.5 -18 -44.5q-1 -26 17.5 -44t44.5 -18q26 -1 44 17.5t18 44.5q1 26 -17.5 44.5t-44.5 18.5t-44 -18.5zM363.5 174.5q18.5 18.5 17.5 44.5
q1 26 -17.5 44t-44.5 18t-44 -18t-18 -44q-1 -26 17.5 -44.5t44.5 -18.5t44.5 18.5zM363.5 455.5q18.5 18.5 17.5 44.5q1 26 -17.5 44t-44.5 18q-26 1 -44 -17.5t-18 -44.5q-1 -26 17.5 -44t44.5 -18q26 -1 44.5 17.5zM364 736q19 19 17 41q1 25 -16.5 42t-41.5 17
t-41.5 -17t-17.5 -42q0 -24 17.5 -41t41.5 -17t41 17zM607 173q17 17 17 42q0 24 -17.5 41t-41.5 17t-41 -17t-17 -41q-1 -25 16.5 -42t41.5 -17q25 0 42 17zM928.5 146q35.5 21 56.5 57t21 78q0 43 -20.5 78.5t-56.5 56.5t-79 21q-42 0 -78 -20.5t-57 -56.5t-21 -79
q0 -42 21 -78t57 -57t78 -21q43 0 78.5 21zM935 303.5q-9 9.5 -22 9.5h-31l-1 62q1 13 -8 22t-23 9q-13 0 -22 -9t-9 -22v-94q0 -13 9 -22t22 -9h63q13 0 22 9t9 22t-9 22.5z" />
    <glyph glyph-name="uniF059" unicode="&#xf059;" horiz-adv-x="1080" 
d="M980 495q0 -6 -4 -16q-12 -17 -27 -25q-24 -17 -50 -30t-66 -31q-45 -20 -74 -35t-55 -35q-14 -11 -62 -54q-54 -50 -86 -71q-44 -31 -68.5 -44t-56.5 -13q-14 0 -34 5q-6 2 -9 2q-12 0 -21 -9.5t-9 -21.5q0 -11 6.5 -19.5t16.5 -10.5q12 -5 25 -6l-42 -58
q-17 -23 -45 -23q-5 0 -15 2q-54 13 -99.5 44t-76.5 76q-10 13 -10 33t11 34l12 17q21 24 33 56q5 23 5 44q0 34 -11 69q-15 69 -15 137q-3 60 -26 115q-3 9 -10.5 26t-12 32t-4.5 28q0 9 3 16q12 23 38 23q9 0 14 -2q35 -11 54 -47.5t32 -89.5q18 -63 49 -119
q10 -17 27 -17q13 0 22 9.5t9 22.5q0 10 -4 15q-14 26 -21 45q45 23 71 65q32 56 47 117q16 53 46 159q10 34 25 57.5t40 29.5q3 1 9 1q9 0 17.5 -4.5t12.5 -13.5q1 -4 1 -11q0 -8 -3 -16q-14 -60 -22 -90l-35 -146q-6 -17 -4 -37q1 -11 6.5 -16.5t12.5 -5.5q15 0 26 18
q60 88 136 209q18 34 46 51q11 6 22 6q12 0 22 -6t15 -17q2 -8 2 -12q0 -19 -14 -43t-37 -56q-5 -7 -9.5 -14t-8.5 -13q-31 -63 -83 -136q-3 -3 -14.5 -17.5t-19 -28.5t-3.5 -22q3 -7 10 -7q8 0 13 7q29 45 77 91l77 64q29 34 66 56q8 5 17 5t20 -7q13 -13 13 -33
q0 -4 -2 -14q-7 -17 -18 -26q-63 -72 -191 -208q-13 -11 -19 -30q-5 -26 24 -26q10 0 22 4q22 6 38 8q46 10 67 18q12 4 39 20q4 2 22 12t36 13q3 1 10 1q16 0 26 -10q6 -9 6 -20z" />
    <glyph glyph-name="uniF060" unicode="&#xf060;" horiz-adv-x="1078" 
d="M714 256q48 25 73 48.5t27 65.5q0 61 -22 112q-53 148 -162 263q-9 9 -9 21q0 13 10 23q9 9 22 9q12 0 22 -10l16 -18q5 7 17 17l20 16q45 34 70 64t21 66q-5 29 -26.5 47.5t-50.5 19.5q-29 0 -52 -20q-16 -15 -31 -38q-30 -55 -71 -96q-52 -36 -89 -74q-34 -45 -53 -96
q-27 -69 -27 -144q0 -65 -7.5 -110t-35.5 -88q-9 -13 -25 -13q-10 0 -18 5q-14 9 -14 26q0 9 5 17q32 55 32 119q-41 -51 -92 -92q-58 -42 -107 -87q-27 -26 -42 -60t-15 -71q-1 -36 11.5 -70t37.5 -60q36 -33 84 -41q27 -7 58 -7q27 0 54 6q61 20 103 65q113 98 241 171z
M978 528q0 -21 -14 -37q-10 -15 -25 -29t-17 -16q-3 -3 -15 -14t-21 -23l-11 -15q-4 56 -24 109q-43 119 -117 215q9 7 15 15q36 48 81 87q16 16 37 16q7 0 11 -1q12 -4 18.5 -14.5t6.5 -22.5q0 -9 -2 -14q-5 -15 -13 -28q26 -6 41 -29q7 -11 7 -25q0 -8 -1 -12
q-6 -20 -19 -33q22 -8 30 -31q3 -7 3 -17q0 -16 -9 -28q14 -5 23.5 -16t13.5 -25q1 -4 1 -12z" />
    <glyph glyph-name="u1F3E5" unicode="&#xf061;" 
d="M1091 53.5q-9 9.5 -22 9.5h-125v750q13 -1 22 8.5t9 22.5t-9 22t-22 9v63q13 -1 22 8.5t9 22.5t-9 22t-22 9h-688q-13 0 -22 -9t-9 -22t9 -22t22 -9v-63q-13 0 -22 -9t-9 -22t9 -22t22 -9v-750l-125 -1q-13 1 -22 -8t-9 -23q0 -13 9 -22t22 -9h938q13 0 22 9t9 22
t-9 22.5zM716 679q9 -9 9 -23q0 -13 -9 -22t-22 -9h-63v-62q0 -13 -9 -22.5t-22 -9.5t-22 9.5t-9 22.5v62h-63q-13 0 -22 9t-9 22t9 22.5t22 9.5h63v62q0 13 9 22t22 9t22 -9t9 -22v-62l63 -1q13 1 22 -8zM631 406v-62h-62v62h62zM475 406v-62h-62v62h62zM538 125v156h125
v-156h-125zM788 406v-62h-62v62h62z" />
    <glyph glyph-name="uniF062" unicode="&#xf062;" horiz-adv-x="981" 
d="M855 611q-26 -34 -67 -44l-1 -317q0 -68 -33 -125.5t-90.5 -91t-125.5 -33.5t-125.5 33.5t-91 91t-33.5 125.5v159q-54 9 -97 41t-67 80t-24 103v211q0 40 23.5 72.5t61.5 45.5q8 12 21 18t27 4q14 -3 24.5 -13t13.5 -24q1 -3 1 -10q0 -12 -5.5 -22.5t-15.5 -16.5
q-11 -7 -26 -7t-27 9q-16 -8 -25.5 -23t-9.5 -33v-211q-1 -43 19 -79.5t55 -59.5t77 -25q31 -1 61 10t53 34q22 22 34.5 51t12.5 61v219q0 18 -9.5 33t-25.5 23q-12 -9 -28 -9q-14 0 -25 7q-12 7 -17.5 21t-3.5 28q3 14 13.5 24t24.5 13q14 2 27.5 -4t21.5 -18
q37 -13 60.5 -45.5t24.5 -72.5l-1 -219q0 -54 -24 -100.5t-67 -77.5t-96 -38v-159q0 -51 25 -94t68 -68t94 -25t94 25t68.5 68t25.5 94v317q-42 10 -68 44.5t-26 76.5q0 7 2 21q8 48 46.5 77.5t87.5 25.5t81.5 -39.5t32.5 -84.5q0 -43 -26 -77z" />
    <glyph glyph-name="uniF063" unicode="&#xf063;" horiz-adv-x="1209" 
d="M1099 735.5q-9 8.5 -21 8.5h-2l-44 -2q1 60 -29 116v1q15 22 32 35q5 4 8.5 10.5t3.5 13.5q0 13 -9.5 22.5t-23.5 9.5q-12 0 -21 -9q-19 -14 -33 -35q-23 15 -46 19q-7 1 -20 1q-25 0 -46 -7q-6 32 -7 47q0 12 -9 21t-22 9h-3q-13 -1 -21.5 -11t-7.5 -22q1 -33 11 -68
q-54 -31 -94 -67q-4 -4 -6 -5l-40 38q-7 9 -21 9q-13 0 -22.5 -9t-9.5 -22q0 -14 9 -23l40 -38q-24 -24 -79 -90q-15 -21 -33 -42l-50 39q-6 7 -19 7t-22 -9.5t-9 -22.5q0 -14 11 -25l48 -37q-63 -70 -113 -115l-51 39q-7 7 -18 7q-13 0 -22.5 -9.5t-9.5 -22.5q0 -16 12 -25
l40 -31q-9 -9 -27 -23l-23 -16l-39 -29q-19 15 -51 38q-10 4 -18 4q-12 0 -21.5 -9.5t-9.5 -22.5q0 -16 15 -26l39 -28q-32 -37 -35 -82l-35 -8q-11 -2 -18 -11t-7 -19q0 -13 9.5 -23t21.5 -10v0q5 0 7 1l36 8l6 -12q17 -29 43 -47q-17 -22 -25 -52q-2 -6 -2 -9
q0 -13 9.5 -22.5t22.5 -9.5q10 0 18.5 6.5t11.5 16.5q6 24 21 40q33 -10 54 -12q10 -1 29 -1h12v-53q1 -13 10 -20.5t20 -7.5q13 0 23.5 8t10.5 21v60q64 16 126 50l18 -46q3 -9 11 -14.5t18 -5.5q5 0 11 2q10 4 15.5 12t5.5 18q0 4 -2 10l-22 57q55 35 102 73l29 -49
q9 -14 25 -14q13 0 22.5 9t9.5 22q0 8 -3 15l-36 59q46 40 94 97l43 -36q10 -8 22 -8q13 0 22 9.5t9 21.5q0 17 -12 26l-45 37q29 38 63 94q23 -14 53 -26q6 -2 11 -2q13 0 22 9.5t9 22.5q0 10 -6 18t-15 12q-27 10 -45 21q19 38 33 94l53 2q13 1 21.5 10t8.5 22v1
q-1 13 -10 21.5zM603 514q-13 0 -22.5 9t-9.5 22q0 14 11 25q21 18 39 42q12 10 24 10q14 0 23 -9t9 -22t-7 -20q-3 -4 -17.5 -20t-28.5 -28q-9 -9 -21 -9zM729 665q-13 0 -22 9t-9 22t7 21q32 43 75.5 73.5t94.5 44.5q2 1 7 1q13 0 22.5 -9t9.5 -22q0 -11 -7 -20t-18 -11
q-41 -13 -75.5 -38t-59.5 -60q-9 -11 -25 -11z" />
    <glyph glyph-name="uniF064" unicode="&#xf064;" horiz-adv-x="762" 
d="M233 189q-80 -47 -129 -126q-4 -7 -4 -16q0 -18 15 -27q7 -4 16 -4q18 0 27 15q26 41 63.5 73.5t81.5 52.5l-7 2q-38 16 -63 30zM572.5 159.5q-50.5 41.5 -111.5 65.5q60 26 115 72q42 39 64.5 92.5t21.5 110.5q2 58 -20.5 111t-65.5 92q-36 31 -77 52t-105 48
q-80 34 -113 52q-77 40 -123 114q-9 15 -27 15q-9 0 -16 -4q-15 -9 -15 -27q0 -9 4 -16q36 -55 86.5 -96.5t110.5 -65.5q-60 -26 -115 -72q-42 -39 -64.5 -92.5t-21.5 -110.5q-1 -58 21.5 -111t65.5 -92q67 -55 146 -86q5 -2 11 -4.5t14 -5.5q66 -27 105.5 -46.5t77.5 -50
t63 -73.5q9 -15 27 -15q9 0 16 4q15 9 15 27q0 9 -4 16q-35 55 -85.5 96.5zM254 678.5q9 9.5 22 9.5l208 -1q13 1 22 -8t9 -23q0 -13 -9 -22t-22 -9h-208q-13 0 -22 9t-9 22t9 22.5zM170.5 478q-9.5 9 -9.5 22t9.5 22t22.5 9h374q13 0 22.5 -9t9.5 -22t-9 -22t-22 -9h-375
q-13 0 -22.5 9zM254 321.5q-9 9.5 -9 22.5t9 22t22 9h208q13 0 22 -9t9 -22t-9 -22t-22 -9h-208q-13 -1 -22 8.5zM529 811q-39 20 -70 32q91 41 145 126q9 15 27 15q9 0 16 -4q15 -9 15 -27q0 -9 -4 -16q-49 -79 -129 -126z" />
    <glyph glyph-name="uniF065" unicode="&#xf065;" horiz-adv-x="950" 
d="M841 478q9 9 9 22t-9 22t-22 9h-90q5 51 19 94h-429q-13 0 -22 9t-9 22q-1 13 8 22.5t23 9.5h429q-16 49 -19 93h90q13 0 22 9t9 22t-9 22.5t-22 9.5h-90q4 55 25 114q2 8 2 11q0 9 -5.5 17t-15.5 12q-8 2 -11 2q-9 0 -17 -5.5t-11 -15.5q-1 -2 -4 -10h-434q-3 8 -4 10
q-3 10 -11 15.5t-18 5.5q-3 0 -11 -2q-9 -4 -14.5 -12t-5.5 -17q0 -3 2 -11q21 -59 25 -114h-90q-13 0 -22 -9t-9 -22t9 -22.5t22 -9.5h90q-5 -60 -25 -114q-1 -1 -1 -3l-1 -4v-3v-4q0 -3 1 -4q0 -2 1 -3q21 -59 25 -115h-90q-13 0 -22 -9t-9 -22t9 -22t22 -9h90
q-5 -62 -25 -114q-1 -1 -1 -3l-1 -4v-4v-4q0 -2 1 -3q0 -3 1 -4q21 -59 25 -114h-90q-13 0 -22 -9t-9 -22t9 -22.5t22 -9.5h90q-5 -60 -25 -114q-2 -8 -2 -11q0 -9 5.5 -17t14.5 -12q8 -2 11 -2q9 0 17 5.5t12 14.5q1 2 4 11h434q3 -9 4 -11q3 -9 11 -14.5t18 -5.5q5 0 11 2
q12 5 17 16q3 6 3 13q0 5 -2 11q-20 54 -25 114h90q13 0 22 9t9 22t-9 22.5t-22 9.5h-90q5 49 19 94h-429q-13 -1 -22 8t-9 23q-1 13 8.5 22t22.5 9h429q-16 48 -19 94h90q13 0 22 9zM466 790.5q-9 -9.5 -22 -9.5h-63q-13 0 -22 9t-9 22t9 22.5t22 9.5h63q13 0 22 -9t9 -22
t-9 -22.5zM466 478q-9 -9 -22 -9h-63q-13 0 -22 9t-9 22t9 22t22 9h63q13 0 22 -9t9 -22t-9 -22zM466 165.5q-9 -9.5 -22 -9.5h-63q-13 0 -22 9t-9 22t9 22.5t22 9.5h63q13 0 22 -9t9 -22t-9 -22.5z" />
    <glyph glyph-name="uniF066" unicode="&#xf066;" horiz-adv-x="1202" 
d="M1092.5 746q9.5 -9 9.5 -22v-595q0 -13 -9.5 -22t-22.5 -9t-22 9t-9 22v157h-876v-157q0 -13 -9.5 -22t-22.5 -9t-22 9t-9 22v752q0 13 9 22t22 9t22.5 -9t9.5 -22v-186l62 88q9 13 26 13q9 0 17 -5l226 -161h483v-156q0 -13 9 -22.5t22 -9.5t22 9.5t9 22.5v250
q0 13 9 22t22 9t22.5 -9zM427 448l-264 187v-193h282q-10 0 -18 6zM466 573l-208 148l-37 -51l234 -165h21v64q-6 2 -10 4z" />
    <glyph glyph-name="uniF067" unicode="&#xf067;" 
d="M1100 678q0 22 -7 40q-9 26 -27 47t-43 34q4 -39 7 -61q2 -13 -5.5 -23t-20.5 -12l-5 -1q-11 0 -20 8t-11 19q-6 80 -24 158q-11 44 -48 71t-83 24q-52 -6 -96.5 -53.5t-58.5 -102.5q-18 -67 -56 -121t-102 -115q-37 -37 -83 -72q-75 -49 -159 -73l-31 -8
q-43 -9 -71.5 -24t-44.5 -50q-11 -22 -11 -49t12 -51t35 -40q27 -16 56 -19q46 0 82 -4q44 -8 80 -23q10 -4 15 -14t3 -21t-10.5 -18t-19.5 -7q-6 0 -12 3q-40 16 -77 19q2 -4 14 -26q15 -33 42 -57.5t61 -34.5q13 -4 29 -4q27 1 51 10.5t43 27.5q49 49 65 120q4 14 7 21
q23 68 67 123q56 73 131.5 124.5t163.5 75.5q40 11 82 34t64 63q16 32 16 62zM648.5 559.5q-8.5 -2.5 -16.5 -0.5t-14.5 7.5t-8.5 13.5q-2 6 -2 9q0 12 9 21l24 30q4 7 12 11t16 2q18 -2 26 -18q2 -4 2 -12q0 -10 -6 -19q-18 -24 -28 -35q-5 -7 -13.5 -9.5zM746 720.5
q-8 -5.5 -18 -5.5q-7 0 -10 1q-10 4 -15.5 12t-5.5 18q0 7 1 10q23 91 92 157q9 6 19 6q15 0 24 -11q8 -10 8 -20q0 -13 -11 -24q-55 -53 -73 -128v0q-3 -10 -11 -15.5z" />
    <glyph glyph-name="uniF068" unicode="&#xf068;" 
d="M747 9q9 9 9 22v313h313q13 0 22 9t9 22v250q0 13 -9 22t-22 9h-313v313q0 13 -9 22t-22 9h-250q-13 0 -22 -9t-9 -22v-313h-313q-13 0 -22 -9t-9 -22v-250q0 -13 9 -22t22 -9h313v-313q0 -13 9 -22t22 -9h250q13 0 22 9z" />
    <glyph glyph-name="uniF069" unicode="&#xf069;" horiz-adv-x="1168" 
d="M700 9q9 9 9 22v252l218 -126q7 -4 15 -4t16 4.5t12 11.5l94 162q4 7 4 15t-4.5 16t-11.5 12l-218 126l218 126q7 4 11.5 12t4.5 16t-4 15l-94 162q-4 7 -12 11.5t-16 4.5t-15 -4l-218 -126v252q0 13 -9 22t-22 9h-188q-13 0 -22 -9t-9 -22v-252l-218 126q-7 4 -15 4
t-16 -4.5t-12 -11.5l-94 -162q-4 -7 -4 -15t4.5 -16t11.5 -12l218 -126l-218 -126q-7 -4 -11.5 -12t-4.5 -16t4 -15l94 -162q4 -7 12 -11.5t16 -4.5t15 4l218 126v-252q0 -13 9 -22t22 -9h188q13 0 22 9z" />
    <glyph glyph-name="uniF070" unicode="&#xf070;" horiz-adv-x="856" 
d="M733 758q23 -23 23 -55v-328q0 -40 -16.5 -76.5t-46.5 -62.5v-48q0 -26 -18 -44.5t-44 -18.5h-31l-1 -94q1 -13 -8 -22t-23 -9q-13 0 -22 9t-9 22v94h-31q-26 0 -44.5 18.5t-18.5 44.5v48q-29 26 -45.5 62.5t-16.5 76.5v328q0 32 23 55t55 23h78v67q-33 9 -57 33t-32 57
h-239q-19 0 -33 -13.5t-14 -33.5v-860q0 -13 -9 -22t-22 -9t-22 9t-9 22v860q-1 45 31 77t78 32h265q13 0 22.5 -9t9.5 -22q0 -17 8.5 -32t24.5 -23q2 11 10.5 17.5t18.5 6.5q11 0 19.5 -7t10.5 -17q15 8 24 23t9 32q0 13 9 22t22 9t22 -9t9 -22q0 -43 -26 -77t-67 -44v-67
h78q32 0 55 -23zM447.5 714.5q-4.5 -4.5 -4.5 -11.5v-203h250v94h-93q-13 0 -22.5 9t-9.5 22t9.5 22t22.5 9h93v47q0 7 -4.5 11.5t-10.5 4.5h-219q-7 0 -11.5 -4.5zM684 353q9 9 9 22t-9 22t-22 9h-62q-13 0 -22.5 -9t-9.5 -22t9.5 -22t22.5 -9h62q13 0 22 9z" />
    <glyph glyph-name="uniF071" unicode="&#xf071;" 
d="M1043.5 620.5q31.5 -20.5 46.5 -55.5q10 -23 10 -49q0 -50 -34 -87l-162 -169q-10 -10 -23 -10q-12 0 -22 10l-140 146h-93l-58 -349q-1 -11 -10 -18.5t-20 -7.5h-1q-12 0 -20.5 8t-10.5 20l-67 633l-58 -384q-1 -10 -9 -17.5t-19 -9.5q-11 -1 -19.5 4.5t-12.5 15.5
l-69 183l-30 -60q-4 -8 -11.5 -13t-16.5 -5h-63q-13 0 -22 9t-9 22t9 22.5t22 9.5h43l54 107q9 18 30 18q9 -1 16.5 -6.5t11.5 -13.5l51 -138l76 506q1 12 10.5 19.5t20.5 7.5q12 -1 20.5 -9t10.5 -19l69 -648l25 150q2 11 11 18.5t20 7.5h72q-9 23 -9 47q0 32 15.5 60.5
t43.5 45.5q29 19 66 19q26 0 50.5 -11t42.5 -32q18 20 42.5 31.5t51.5 11.5q37 0 68.5 -20.5z" />
    <glyph glyph-name="uniF072" unicode="&#xf072;" horiz-adv-x="1166" 
d="M731 219q-3 -5 -2 -10t5 -9t9 -4q53 -8 101 -18q63 -14 114 -19q7 0 11 -4.5t5 -10.5q0 -6 -4 -11t-10 -6q-115 -19 -217 -22q-9 -1 -28 -1q-53 0 -101 13v-86q0 -13 -9 -22t-22 -9t-22 9t-9 22v86q-48 -13 -101 -13q-19 0 -28 1q-112 3 -217 22q-6 1 -10 5.5t-4 11.5
q0 6 4.5 10.5t11.5 4.5q57 6 114 18q49 12 101 18q12 2 14 14v2q0 5 -3 9t-7 5q-91 25 -166 85q-34 28 -67 70q-17 20 -54 69l-35 46q-5 7 -5 14q0 5 4 13q5 6 11.5 8.5t13.5 1.5q95 -10 190 -38q63 -22 119 -64q5 -4 12 -4q10 0 16 7t1 16q-16 25 -26 62q-4 25 -4 55
q0 59 15.5 116t46.5 139l60 163q6 16 24 16t24 -16l61 -163q30 -82 45.5 -139.5t15.5 -115.5q0 -31 -4 -55q-7 -33 -26 -62q-1 -2 -1 -7q0 -10 7 -14q6 -4 11 -4t11 4q53 41 120 66q95 28 190 38l5 1q14 0 20 -11q4 -8 4 -13q0 -7 -5 -14l-23 -30q-36 -50 -66 -85
q-32 -39 -66 -71q-78 -59 -167 -84q-5 -1 -8 -6z" />
    <glyph glyph-name="uniF073" unicode="&#xf073;" horiz-adv-x="1146" 
d="M1046 768q0 -15 -9 -27.5t-23 -17.5q-43 -15 -79 -41q5 -17 5 -29q0 -27 -14 -50q-130 -220 -199 -472q-13 -43 -26.5 -70.5t-42.5 -44.5q-28 -16 -62 -16q-46 0 -95 22.5t-115 61.5q2 -1 -43 25l-21 11q-81 38 -151 91q-30 25 -50.5 58.5t-20.5 67.5q0 29 17 56
q29 47 100 47q32 0 84 -10q7 -1 19.5 -3t20.5 -2q10 -2 29 -2q23 0 40 4q28 9 41.5 42t26.5 90q10 44 11 46q31 112 82 208q12 22 34 34.5t47 12.5q13 0 20 -2q74 90 184 133q9 4 23 4q28 0 46 -20q80 -83 118 -191q3 -7 3 -16zM877 652q0 12 -9 21q-90 84 -206 123
q-6 2 -10 2q-8 0 -15 -4.5t-11 -11.5q-48 -93 -75 -195q-4 -12 -10 -42q-11 -47 -22 -79t-33 -60.5t-58 -39.5q-27 -7 -57 -7q-11 0 -35 2l-26 3l-20 3q-36 7 -71 9l-8 1q-24 0 -40 -18q-5 -13 -5 -25q0 -28 21 -48l24 31q10 10 24 10q13 0 22 -9.5t9 -22.5q0 -11 -8 -21
q-16 -20 -23 -30q33 -25 83 -51q36 42 55 62q10 10 24 10t23 -9t9 -23t-9 -23l-44 -46l43 -25l44 -26q34 38 50 54q12 8 23 8q13 0 22.5 -9t9.5 -22q0 -12 -9 -23l-22 -22l-14 -15q43 -20 72 -20q17 0 31 8t22 26t17 49v1q-46 96 -114 190q-6 9 -6 19q0 13 9 22.5t22 9.5
q16 0 25 -13q51 -67 90 -141q18 56 40 111q-48 81 -102 156q-6 8 -6 18q0 13 9.5 22.5t22.5 9.5q16 0 26 -13q33 -47 80 -120q22 51 45 95q-40 85 -99 159q-7 8 -7 20q0 14 9.5 23t22.5 9q16 0 25 -12q49 -62 85 -130l30 53q5 8 5 16z" />
    <glyph glyph-name="uniF074" unicode="&#xf074;" horiz-adv-x="1138" 
d="M1015 977q-23 23 -55 23h-782q-32 0 -55 -23t-23 -55v-172q0 -13 9.5 -22t22.5 -9h874q13 0 22.5 9t9.5 22v172q0 32 -23 55zM882 29q-2 -13 -10.5 -21t-21.5 -8h-562q-13 0 -21.5 8t-9.5 21l-55 627h734zM453 251q0 -29 12 -55t35 -44q35 -27 78 -27q45 0 81 30
q21 19 32.5 44t11.5 51q0 33 -16 61l-115 205l-106 -209q-13 -26 -13 -56z" />
    <glyph glyph-name="uniF075" unicode="&#xf075;" horiz-adv-x="1138" 
d="M1015 977q-23 23 -55 23h-782q-32 0 -55 -23t-23 -55v-172q0 -13 9.5 -22t22.5 -9h874q13 0 22.5 9t9.5 22v172q0 32 -23 55zM882 29q-2 -13 -10.5 -21t-21.5 -8h-562q-13 0 -21.5 8t-9.5 21l-55 627h734zM736 240q0 28 -15 50q-26 42 -51 43h-3q-8 0 -10 -2q12 21 12 46
q0 13 -5 30q-19 40 -60 65l-51 37q1 -5 1 -15t-1 -16q-5 -22 -18 -40.5t-32 -30.5q-34 -23 -69 -58q-8 -13 -8 -27q0 -12 6 -24t16 -19q1 -1 7 -4l-16 -4q-18 -13 -28 -29.5t-10 -34.5q0 -26 22 -48q13 -13 28 -16t29.5 -3h19.5h145q33 4 57.5 26.5t31.5 54.5q2 12 2 19z
" />
    <glyph glyph-name="uniF076" unicode="&#xf076;" horiz-adv-x="950" 
d="M850 750v-719q0 -13 -9 -22t-22 -9h-688q-13 0 -22 9t-9 22v938q0 13 9 22t22 9h469q13 0 22 -9l219 -219q9 -9 9 -22zM600 750h175l-175 175v-175zM466 821.5q9 9.5 9 22.5t-9 22t-22 9h-188q-13 0 -22 -9t-9 -22t9 -22t22 -9h188q13 -1 22 8.5zM466 696.5q9 9.5 9 22.5
t-9 22t-22 9h-188q-13 0 -22 -9t-9 -22t9 -22t22 -9h188q13 -1 22 8.5zM637 357q26 28 26 65q0 25 -14 48q-13 22 -34.5 33.5t-45.5 11.5q-13 0 -25 -3q-31 -8 -50 -33t-19 -57q0 32 -19 57t-50 33q-12 3 -25 3q-24 0 -45.5 -11.5t-34.5 -33.5q-14 -23 -14 -48q0 -37 26 -65
l162 -169z" />
    <glyph glyph-name="uniF077" unicode="&#xf077;" horiz-adv-x="1198" 
d="M145 199.5q31 -45.5 76 -77.5q14 -10 33 -10q20 0 34 11l18 12q24 21 56 33q19 4 43 4q35 0 70 -11q70 -14 137 -14q55 -1 114 -26q9 -3 26 -10.5t32 -12t28 -4.5q9 0 16 3q11 6 17.5 16.5t6.5 22.5q0 5 -2 13q-9 28 -43.5 48.5t-72.5 31.5q-32 6 -57 25q-15 15 -15 35
q0 26 23 54.5t48 44.5q56 32 118 47l158 47q35 9 58.5 23.5t28.5 39.5q2 6 2 9q0 9 -5 17t-13 13q-8 2 -12 2q-9 0 -17 -3l-235 -57q-15 -5 -27 -5q-7 0 -10 1q-11 1 -16.5 6.5t-5.5 12.5q0 15 18 26q69 47 209 135q33 16 51 47q5 9 5 21q0 25 -22 38q-8 2 -12 2
q-18 0 -40.5 -13t-56.5 -36q-24 -18 -29 -20q-74 -39 -136 -83q-17 -15 -37 -28.5t-30 -9.5q-7 3 -7 11q0 7 7 14q47 30 90 76l65 77q34 30 55 66q5 8 5 17q0 10 -7 20q-13 13 -32 13q-6 0 -14 -3q-10 -3 -26 -17q-71 -62 -209 -192q-10 -13 -29 -18q-14 -3 -20 4.5t-6 20.5
q0 12 3 21q4 14 10 42q1 6 6 26t11 36q6 17 19 39q21 36 25 58q1 3 1 9q0 17 -10 27q-9 6 -20 6q-8 0 -15 -4q-18 -13 -26 -27q-16 -23 -28.5 -48.5t-29.5 -64.5q-20 -46 -35.5 -75.5t-36.5 -56.5q-17 -21 -53 -61q-46 -48 -72 -86q-19 -25 -53 -79q-19 -42 -59 -67
q-42 -30 -63 -46q-11 -8 -17 -20.5t-6 -26.5q0 -9 1 -13q13 -53 44 -98.5zM620 431q9 -9 9 -22t-9 -22t-22 -9t-22 9t-9 22t9 22t22 9t22 -9zM464 431q9 -9 9 -22t-9 -22t-22 -9q-12 0 -21.5 9t-9.5 22t9.5 22t21.5 9q13 0 22 -9zM589 618q9 -9 9 -22t-9 -22t-22 -9t-22 9
t-9 22t9 22t22 9t22 -9zM527 525q9 -9 9 -22t-9 -22t-22 -9t-22.5 9t-9.5 22t9.5 22t22.5 9t22 -9zM402 525q9 -9 9 -22t-9 -22t-22 -9t-22 9t-9 22t9 22t22 9t22 -9zM277.5 337.5q9.5 -9.5 9.5 -21.5q0 -13 -9 -22t-23 -9q-12 0 -21.5 9t-9.5 22q0 12 9.5 21.5t21.5 9.5
q13 0 22.5 -9.5zM527 337.5q9 -9.5 9 -21.5q0 -13 -9 -22t-22 -9t-22.5 9t-9.5 22q0 12 9.5 21.5t22.5 9.5t22 -9.5z" />
    <glyph glyph-name="uniF078" unicode="&#xf078;" 
d="M1091 834.5q-9 9.5 -22 9.5h-125v125q0 13 -9 22t-22 9h-125q-13 0 -22.5 -9t-9.5 -22v-125h-125q-13 0 -22 -9t-9 -22v-125q0 -13 9 -22.5t22 -9.5h125v-125q0 -13 9.5 -22t22.5 -9h124q13 0 22.5 9t9.5 22v125h125q13 0 22 9.5t9 22.5v124q0 13 -9 22.5zM914.5 285.5
q4.5 -8.5 3.5 -18.5l-20 -184q-2 -15 -14 -23l-90 -55q-8 -5 -16 -5q-5 0 -11 2q-225 90 -400 265t-265 400q-2 6 -2 10q0 9 5 17l55 90q8 12 23 14l185 20q10 1 18 -3.5t13 -13.5l97 -197q3 -6 3 -14q0 -13 -7 -20l-60 -72q26 -51 69 -97q46 -43 97 -69l72 60q7 7 20 7
q8 0 14 -3l197 -97q9 -5 13.5 -13.5z" />
    <glyph glyph-name="uniF079" unicode="&#xf079;" horiz-adv-x="1050" 
d="M449 1000q12 0 20.5 -8t8.5 -20v-59q0 -13 -9.5 -22.5t-22.5 -9.5v-503q0 -16 -12 -26l-114 -85v-141l23 -91l1 -7q0 -11 -8.5 -19.5t-20.5 -8.5v0h-53v0q-11 0 -19.5 8.5t-8.5 19.5q0 5 1 7l22 91v141l-113 85q-13 10 -13 26v503q-13 0 -22 9.5t-9 22.5v59v0
q0 12 8.5 20t19.5 8h6q76 -15 155 -15q78 0 155 15h5zM383 598h-189v-205l63 -47v32q0 13 9.5 22t22.5 9t22 -9t9 -22v-32l63 47v205zM194 881v-220h189v220h-189zM921 1000q12 0 20.5 -8t8.5 -20v-59q0 -13 -9.5 -22.5t-22.5 -9.5v-503q0 -17 -12 -26l-114 -85v-141l23 -91
q1 -2 1 -7q0 -11 -8.5 -19.5t-19.5 -8.5h-1h-53v0q-11 0 -19.5 8.5t-8.5 19.5q0 5 1 7l22 91v141l-113 85q-13 10 -13 26v503q-13 0 -22 9.5t-9 22.5v59v0q0 12 8.5 20t19.5 8h6q76 -15 155 -15t155 15h5zM855 598h-189v-205l63 -47v32q0 13 9.5 22t22.5 9t22 -9t9 -22v-32
l63 47v205zM666 881v-220h189v220h-189z" />
    <glyph glyph-name="uniF080" unicode="&#xf080;" 
d="M1091 178.5q-9 9.5 -22 9.5h-125v156q13 0 22 9t9 22t-9 22t-22 9v281q0 52 -36.5 89t-88.5 37h-438v78q0 45 -32 77t-77 32h-78q-13 0 -22 -9t-9 -22q-1 -13 8 -22t23 -9h78q20 0 33.5 -13.5t13.5 -33.5v-280q-66 -21 -117 -67t-77.5 -109t-24.5 -133q2 -69 33 -130
t84.5 -104t120.5 -59q38 -9 74 -9q84 0 157.5 42.5t115.5 116.5q40 71 40 153q0 62 -23.5 119.5t-68.5 102.5q-8 10 -8 20q0 14 9 23t22 9q12 0 22 -8q47 -47 75 -107.5t33 -126.5h95v-162q-17 5 -31 5q-39 1 -66.5 -26.5t-27.5 -66.5t27.5 -66.5t66.5 -27.5t66.5 27.5
t27.5 66.5v31h125q13 0 22 9t9 22t-9 22.5zM576 179q0 -13 -10 -22q-9 -9 -22 -9t-22 9l-110 111l-111 -110q-9 -9 -22 -9t-22 10q-9 9 -9 22t9 22l111 110l-110 111q-9 9 -9 22t10 22q9 9 22 9t22 -9l110 -111l111 110q9 9 22 9t22 -10q9 -9 9 -22t-9 -22l-111 -110
l110 -111q9 -9 9 -22z" />
    <glyph glyph-name="u1F480" unicode="&#xf081;" 
d="M978 135l-113 1h-1q-93 0 -141 121q-38 -13 -74 -35q-14 -8 -22 -11q19 -48 53 -87t79 -64q51 -21 104 -27q56 -9 92 -16q62 -12 94 -17h4q11 0 20 7t11 18q10 50 12 76q1 1 1 3q0 12 -9 20.5t-21 9.5q-68 0 -89 1zM499 236q-24 -4 -55 -4q-73 0 -141 29t-118 82
q-41 47 -63 107.5t-22 125.5q0 108 56 202q55 88 141 144.5t189 72.5q50 9 101 9q96 0 188 -31.5t168 -91.5q43 -37 78 -87t35 -113q0 -15 -3 -32q-3 -19 -13 -48q-10 -24 -13 -53q2 -21 14 -37.5t31 -23.5q10 -3 16 -11.5t6 -18.5q0 -7 -3 -13q-4 -7 -8 -16t-9 -19l-11 -24
q-7 -12 -7 -16t4 -8q7 -6 21 -14q9 -5 13 -14.5t2 -19.5q-1 -7 -1 -21q0 -17 2 -25q2 -14 2 -23l1 -9v-2q0 -15 -11 -26t-26 -11q-28 0 -84 2l-114 1q-41 0 -70 51q20 -5 35 -5q11 0 17 1q23 4 41.5 18.5t27.5 36.5q3 6 3 12q0 13 -9.5 22t-22.5 9q-9 0 -17 -5t-12 -14
q-6 -14 -21 -17q-18 -1 -40 7q-27 10 -52 10q-8 0 -22 -2q-54 -15 -105 -44q-58 -31 -119 -43zM917 499q33 38 33 86q0 11 -1 17q3 33 -18 62q-10 11 -22 11q-19 0 -36 -25.5t-23 -48.5q-4 -16 -4 -38q0 -50 26 -73q10 -7 19 -5q15 3 26 14z" />
    <glyph glyph-name="uniF082" unicode="&#xf082;" horiz-adv-x="1168" 
d="M469 835q-9 -9 -9 -22t9 -22.5t22 -9.5q14 0 23 9.5t9 22.5t-9.5 22t-22.5 9t-22 -9zM647 719q18 0 27 -14q5 -8 5 -17q0 -18 -14 -27q-37 -25 -80 -25q-45 0 -80 26q-14 9 -14 25q0 9 6 18q9 14 25 14q9 0 18 -6q20 -15 45 -15q26 0 45 16v0q8 5 17 5zM657 835
q-9 -9 -9 -22q0 -14 9 -23t22 -9t22 9.5t9 22.5t-9 22t-22 9t-22 -9zM1068 176q0 -18 -14 -27q-7 -4 -17 -4q-16 0 -25 12l-109 170q-5 7 -5 13l-27 238q-1 7 -6 11.5t-12 4.5q-13 0 -19 -13t-6 -29l-4 -130q0 -13 -6 -24q-4 -7 -12 -7t-18 6.5t-12 7.5q-8 5 -21 7
q-7 1 -13.5 -5t-6.5 -14q0 -4 3 -9l107 -125l4 -4l101 -166q4 -7 4 -16q0 -18 -15 -27q-7 -5 -16 -5q-17 0 -27 15l-72 120q-25 -79 -91 -127.5t-148 -48.5t-148 48.5t-91 127.5l-72 -120q-10 -15 -27 -15q-9 0 -16 5q-15 9 -15 27q0 9 4 16l101 166l3 4l108 125q3 5 3 9
q0 8 -6.5 14t-13.5 5q-12 -2 -20 -7q-3 -2 -13 -8t-18 -6t-12 7q-6 11 -5 24l-5 130q0 16 -6 29t-19 13q-7 0 -12 -4.5t-6 -12.5l-27 -237q0 -5 -4 -13l-110 -170q-9 -15 -27 -15q-8 0 -16 5q-15 9 -15 27q0 9 5 17l106 163l26 230q3 31 26 51.5t54 20.5q6 0 18 -2v41
q-19 11 -30 28q-11 19 -11 40q0 8 1 12q8 31 35 48q12 6 19 8q26 76 91 122.5t145 46.5q4 0 6 -1h2v0q78 -2 140 -48t88 -119l19 -9q27 -17 35 -48q1 -4 1 -13q0 -24 -11 -39q-11 -17 -30 -28v-41q12 2 18 2q31 0 54 -20.5t26 -51.5l26 -230l106 -163q3 -7 3 -15zM742 853
q-32 47 -86 70v-7q0 -5 -2 -19q-9 -25 -30.5 -40.5t-48.5 -15.5q-7 0 -11 1q-8 1 -15 6t-10 13q-2 4 -2 12q0 10 6 19q11 14 30 12h2q12 0 19 12v3q0 5 -3 11q-5 7 -15 7q-23 2 -44 -6q-59 -19 -96 -69t-39 -112v-78q0 -4 7 -12t9 -11l19 -23q16 -20 42 -44q74 -69 162 -114
q5 -4 14 -4q11 0 19.5 6.5t11.5 17.5q2 11 -2 20.5t-14 14.5q-26 14 -38 22q85 42 146 110v95q0 55 -31 103z" />
    <glyph glyph-name="uniF083" unicode="&#xf083;" horiz-adv-x="1114" 
d="M269 103q8 6 12 15q2 6 2 10q0 15 -12 25q-14 12 -20 20q-11 14 -29 12q-19 -3 -25 -20q-2 -6 -2 -11q0 -12 7 -20q13 -16 30 -30q9 -7 19 -7t18 6zM1014 423q0 -64 -27 -123q-30 -71 -60 -125q-16 -32 -44 -53t-64 -28h-15q-38 0 -69 23q-33 -24 -73 -24l-12 1
q-36 7 -64 28t-44 53q-17 30 -38 76v0q-5 8 -12.5 13t-16.5 5q-7 0 -13 -3q-8 -4 -13 -12t-5 -17q0 -7 3 -13q12 -27 40 -79q20 -36 48 -62q-36 -40 -84.5 -61.5t-101.5 -21.5q-47 0 -89 16q-73 28 -117 92t-43 142v500q0 68 33 125.5t90.5 91t125.5 33.5t126 -33.5
t91.5 -91t33.5 -125.5v-67q-13 0 -19 -1q-24 -5 -44 -12v80q0 51 -25 94t-68 68t-94 25t-94 -25t-68.5 -68t-25.5 -94v-479q0 -13 9 -22t22 -9t22.5 9t9.5 22v229h239q7 24 14 36q16 34 46 56.5t67 27.5q18 2 28 2q45 0 87 -21q11 78 48 143q5 7 12.5 11t15.5 4t15 -4
q15 -9 15 -27q0 -9 -4 -16q-28 -49 -39 -108q39 18 81 18q10 0 28 -2q37 -5 67 -27.5t46 -56.5q23 -55 23 -113zM571 399q10 4 16 11.5t6 17.5q0 3 -2 11q-2 10 -2 16q0 16 7 27q6 11 19 14q13 2 20 12.5t5 23.5t-12.5 20t-23.5 5q-19 -3 -35.5 -14.5t-26.5 -28.5
q-15 -27 -15 -59q0 -21 5 -35q3 -10 11.5 -16t18.5 -6q6 0 9 1z" />
    <glyph glyph-name="uniF084" unicode="&#xf084;" horiz-adv-x="1138" 
d="M975 735q-63 108 -171 171t-235 63t-235 -63t-171 -171t-63 -235t63 -235t171 -171t235 -63t235 63t171 171t63 235t-63 235zM591 384q-9 -9 -22 -9t-22 9t-9 22v313q0 13 9 22t22 9t22 -9t9 -22v-313q0 -13 -9 -22zM591 303.5q9 -9.5 9 -22.5t-9 -22t-22 -9t-22 9t-9 22
t9 22.5t22 9.5t22 -9.5z" />
    <glyph glyph-name="uniF085" unicode="&#xf085;" 
d="M1096 109q4 7 4 16t-4 16l-469 812q-9 14 -27 14t-27 -14l-469 -812q-4 -10 -4 -16t4 -16q10 -15 27 -15h938q17 0 27 15zM622 353q-9 -9 -22 -9t-22 9t-9 22v281q0 13 9 22t22 10q13 0 22 -9.5t9 -22.5v-281q0 -13 -9 -22zM622 272q9 -9 9 -22t-9 -22t-22 -9t-22 9
t-9 22t9 22t22 9t22 -9z" />
    <glyph glyph-name="uniF086" unicode="&#xf086;" horiz-adv-x="1138" 
d="M975 735q-63 108 -171 171t-235 63t-235 -63t-171 -171t-63 -235t63 -235t171 -171t235 -63t235 63t171 171t63 235t-63 235zM569 219q-13 0 -22 9l-188 187q-9 9 -9 21q0 7 3 13q3 9 11 14.5t18 5.5h93v250q0 13 9.5 22t22.5 9h124q13 0 22.5 -9t9.5 -22v-250h93
q10 0 18 -5.5t11 -14.5q3 -6 3 -13q0 -12 -9 -21l-188 -187q-9 -9 -22 -9z" />
    <glyph glyph-name="uniF087" unicode="&#xf087;" horiz-adv-x="1138" 
d="M975 265q-63 -108 -171 -171t-235 -63t-235 63t-171 171t-63 235t63 235t171 171t235 63t235 -63t171 -171t63 -235t-63 -235zM569 781q-13 0 -22 -9l-188 -187q-9 -9 -9 -21q0 -7 3 -13q3 -9 11 -14.5t18 -5.5h93v-250q0 -13 9.5 -22t22.5 -9h124q13 0 22.5 9t9.5 22
v250h94q9 0 17 5.5t11 14.5q3 6 3 13q0 12 -9 21l-188 187q-9 9 -22 9z" />
    <glyph glyph-name="uniF088" unicode="&#xf088;" horiz-adv-x="1138" 
d="M804 94q108 63 171 171t63 235t-63 235t-171 171t-235 63t-235 -63t-171 -171t-63 -235t63 -235t171 -171t235 -63t235 63zM288 500q0 13 9 22l187 188q9 9 21 9q7 0 13 -3q9 -3 14.5 -11t5.5 -17v-94h250q13 0 22 -9t9 -22v-125q0 -13 -9 -22.5t-22 -9.5h-250v-94
q0 -9 -5.5 -17t-14.5 -11q-6 -3 -13 -3q-12 0 -21 9l-187 188q-9 9 -9 22z" />
    <glyph glyph-name="uniF089" unicode="&#xf089;" horiz-adv-x="1138" 
d="M334 906q-108 -63 -171 -171t-63 -235t63 -235t171 -171t235 -63t235 63t171 171t63 235t-63 235t-171 171t-235 63t-235 -63zM850 500q0 -13 -9 -22l-187 -188q-9 -9 -21 -9q-7 0 -13 3q-9 3 -14.5 11t-5.5 18v93h-250q-13 0 -22 9.5t-9 22.5v124q0 13 9 22.5t22 9.5
h250v93q0 10 5.5 18t14.5 11q6 3 13 3q12 0 21 -9l187 -188q9 -9 9 -22z" />
    <glyph glyph-name="uniF090" unicode="&#xf090;" horiz-adv-x="888" 
d="M466 960l313 -313q9 -9 9 -21q0 -7 -3 -13q-3 -9 -11 -14t-17 -5h-157v-500q0 -13 -9 -22t-22 -9h-250q-13 -1 -22 8.5t-9 22.5v500h-157q-9 0 -17 5t-11 14q-3 6 -3 13q0 12 9 21l313 313q11 9 22 9t22 -9z" />
    <glyph glyph-name="uniF091" unicode="&#xf091;" horiz-adv-x="888" 
d="M466 40l313 313q9 9 9 21q0 7 -3 13q-3 9 -11 14t-17 5h-157v500q0 13 -9 22.5t-22 9.5h-250q-13 0 -22 -9.5t-9 -22.5v-500h-157q-9 0 -17 -5t-11 -14q-3 -6 -3 -13q0 -12 9 -21l313 -313q11 -9 22 -9t22 9z" />
    <glyph glyph-name="uniF092" unicode="&#xf092;" horiz-adv-x="1106" 
d="M997 478l-313 -313q-9 -9 -21 -9q-7 0 -13 3q-9 3 -14 11t-5 18v156h-500q-13 0 -22 9t-9 22v250q-1 13 8.5 22t22.5 9h500v157q0 9 5 17t14 11q6 3 13 3q12 0 21 -9l313 -313q9 -11 9 -22t-9 -22z" />
    <glyph glyph-name="uniF093" unicode="&#xf093;" horiz-adv-x="1107" 
d="M109 478l313 -313q9 -9 21 -9q7 0 13 3q9 3 14 11t5 18v156h500q13 0 22.5 9t9.5 22v250q0 13 -9.5 22t-22.5 9h-500v157q0 9 -5 17t-14 11q-6 3 -13 3q-12 0 -21 -9l-313 -313q-9 -11 -9 -22t9 -22z" />
    <glyph glyph-name="uniF094" unicode="&#xf094;" horiz-adv-x="888" 
d="M774 599q8 5 11 14q3 6 3 13q0 12 -9 21l-313 313q-9 9 -22 9t-22 -9l-313 -313q-9 -9 -9 -21q0 -7 3 -13q3 -9 11 -14t18 -5h237l-260 -259q-9 -9 -9 -21q0 -7 3 -13q3 -9 11 -14.5t18 -5.5h156v-187q0 -13 9 -22t22 -9h250q13 -1 22 8.5t9 22.5v187h156q10 0 18 5.5
t11 14.5q3 6 3 13q0 12 -9 21l-260 259h237q10 0 18 5z" />
    <glyph glyph-name="uniF095" unicode="&#xf095;" horiz-adv-x="888" 
d="M774 401q8 -5 11 -14q3 -6 3 -13q0 -12 -9 -21l-313 -313q-9 -9 -22 -9t-22 9l-313 313q-9 9 -9 21q0 7 3 13q3 9 11 14t18 5h237l-260 259q-9 9 -9 21q0 7 3 13q3 9 11 14.5t18 5.5h156v187q0 13 9 22.5t22 9.5h250q13 0 22 -9.5t9 -22.5v-187h156q10 0 18 -5.5
t11 -14.5q3 -6 3 -13q0 -12 -9 -21l-260 -259h237q10 0 18 -5z" />
    <glyph glyph-name="uniF096" unicode="&#xf096;" horiz-adv-x="1107" 
d="M470 830q-5 8 -14 11q-6 3 -13 3q-12 0 -21 -9l-313 -313q-9 -9 -9 -22t9 -22l313 -313q9 -9 21 -9q7 0 13 3q9 3 14 11t5 18v237l259 -260q9 -9 21 -9q7 0 13 3q9 3 14.5 11t5.5 18v156h187q13 0 22.5 9t9.5 22v250q0 13 -9.5 22t-22.5 9h-187v157q0 9 -5.5 17t-14.5 11
q-6 3 -13 3q-12 0 -21 -9l-259 -260v237q0 10 -5 18z" />
    <glyph glyph-name="uniF097" unicode="&#xf097;" horiz-adv-x="1106" 
d="M636 830q5 8 14 11q6 3 13 3q12 0 21 -9l313 -313q9 -9 9 -22t-9 -22l-313 -313q-9 -9 -21 -9q-7 0 -13 3q-9 3 -14 11t-5 18v237l-259 -260q-9 -9 -21 -9q-7 0 -13 3q-9 3 -14.5 11t-5.5 18v156h-187q-13 0 -22 9t-9 22v250q-1 13 8.5 22t22.5 9h187v156q0 10 5.5 18
t14.5 11q6 3 13 3q12 0 21 -9l259 -260v237q0 10 5 18z" />
    <glyph glyph-name="uniF098" unicode="&#xf098;" horiz-adv-x="794" 
d="M546 40q68 40 108 108t40 149v375q0 20 -13.5 33.5t-33.5 13.5q-19 0 -33 -13.5t-14 -33.5v-375q0 -55 -27.5 -101.5t-74 -74t-101.5 -27.5q-56 0 -102.5 27.5t-73.5 74t-27 101.5v484q0 52 36.5 88.5t88.5 36.5t88.5 -36.5t36.5 -88.5v-359q0 -19 -13.5 -33t-33.5 -14
q-19 0 -33 14t-14 33v250q0 20 -13.5 33.5t-33.5 13.5q-19 0 -33 -13.5t-14 -33.5v-250q0 -38 19 -70.5t51.5 -51.5t70.5 -19t70 19t51 51.5t19 70.5v359q0 59 -29.5 109.5t-79.5 80t-109 29.5q-60 0 -110 -29.5t-79.5 -79.5t-29.5 -110v-484q0 -81 40 -149t108 -108
t149 -40t149 40z" />
    <glyph glyph-name="uniF099" unicode="&#xf099;" horiz-adv-x="1012" 
d="M528 772l375 -375q9 -9 9 -22q0 -8 -2 -12q-4 -9 -11.5 -14t-17.5 -5h-750q-10 0 -17.5 5t-11.5 14q-2 4 -2 12q0 13 9 22l375 375q9 9 22 9t22 -9z" />
    <glyph glyph-name="uniF100" unicode="&#xf100;" horiz-adv-x="1012" 
d="M528 228l375 375q9 9 9 22q0 8 -2 12q-4 9 -11.5 14t-17.5 5h-750q-10 0 -17.5 -5t-11.5 -14q-2 -4 -2 -12q0 -13 9 -22l375 -375q9 -9 22 -9t22 9z" />
    <glyph glyph-name="uniF101" unicode="&#xf101;" horiz-adv-x="637" 
d="M109 478l375 -375q9 -9 22 -9q8 0 12 2q9 4 14 11.5t5 17.5v750q0 10 -5 17.5t-14 11.5q-4 2 -12 2q-13 0 -22 -9l-375 -375q-9 -9 -9 -22t9 -22z" />
    <glyph glyph-name="uniF102" unicode="&#xf102;" horiz-adv-x="637" 
d="M528 478l-375 -375q-9 -9 -22 -9q-8 0 -12 2q-9 4 -14 11.5t-5 17.5v750q0 10 5 17.5t14 11.5q4 2 12 2q13 0 22 -9l375 -375q9 -9 9 -22t-9 -22z" />
    <glyph glyph-name="uniF103" unicode="&#xf103;" horiz-adv-x="1140" 
d="M434 617.5q19 32.5 51 51t70 18.5t70.5 -18.5t51.5 -51t19 -70.5v-94q0 -38 -19 -70.5t-51.5 -51t-70.5 -18.5t-70 18.5t-51 51t-19 70.5v94q0 38 19 70.5zM1026 413.5q-14 -42.5 -45.5 -71.5t-81.5 -29q-38 0 -70.5 18.5t-51 51t-18.5 70.5v234q0 14 -9 23t-23 9
q-11 0 -19.5 -8t-10.5 -19q-28 28 -65 43t-77 15q-41 0 -79 -16q-56 -24 -90 -75t-34 -112v-94q0 -68 41 -122t106 -73q30 -8 56 -8q52 0 98 25t74 70q28 -45 74 -70t98 -25q40 0 77 15q-64 -110 -173 -172t-234 -62q-92 0 -180 36q-88 37 -153.5 104t-100.5 152.5
t-35 178.5q0 62 16 122q28 102 95.5 181t161 122.5t197.5 43.5q34 0 62 -4q115 -16 208.5 -82t146.5 -167.5t53 -217.5q0 -44 -14 -86.5z" />
    <glyph glyph-name="uniF104" unicode="&#xf104;" horiz-adv-x="1107" 
d="M747.5 9q9.5 9 9.5 22v688q0 13 -9.5 22t-22.5 9h-93q-13 0 -22.5 -9t-9.5 -22v-688q0 -13 9.5 -22t22.5 -9h93q13 0 22.5 9zM997.5 9q-9.5 -9 -22.5 -9h-93q-13 0 -22.5 9t-9.5 22v938q0 13 9.5 22t22.5 9h93q13 0 22.5 -9t9.5 -22v-938q0 -13 -9.5 -22zM247.5 9
q-9.5 -9 -22.5 -9h-93q-13 0 -22.5 9t-9.5 22v188q0 13 9.5 22t22.5 9h93q13 0 22.5 -9t9.5 -22v-188q0 -13 -9.5 -22zM498 9q-9 -9 -23 -9h-93q-13 0 -22.5 9t-9.5 22v438q0 13 9.5 22t22.5 9h93q13 0 22.5 -9t9.5 -22l-1 -438q1 -13 -8 -22z" />
    <glyph glyph-name="uniF105" unicode="&#xf105;" horiz-adv-x="1107" 
d="M747.5 9q9.5 9 9.5 22v63q0 13 -9.5 22t-22.5 9h-93q-13 0 -22.5 -9t-9.5 -22v-63q0 -13 9.5 -22t22.5 -9h93q13 0 22.5 9zM997.5 9q-9.5 -9 -22.5 -9h-93q-13 0 -22.5 9t-9.5 22v63q0 13 9.5 22t22.5 9h93q13 0 22.5 -9t9.5 -22v-63q0 -13 -9.5 -22zM247.5 9
q-9.5 -9 -22.5 -9h-93q-13 0 -22.5 9t-9.5 22v188q0 13 9.5 22t22.5 9h93q13 0 22.5 -9t9.5 -22v-188q0 -13 -9.5 -22zM498 9q-9 -9 -23 -9h-93q-13 0 -22.5 9t-9.5 22v438q0 13 9.5 22t22.5 9h93q13 0 22.5 -9t9.5 -22l-1 -438q1 -13 -8 -22z" />
    <glyph glyph-name="uniF106" unicode="&#xf106;" 
d="M141 10q10 -10 24 -10h89q14 0 24 10t10 24v182q0 15 -10 24.5t-24 9.5h-89q-14 0 -24 -9.5t-10 -24.5v-182q0 -14 10 -24zM538 430v-399q0 -13 -9.5 -22t-22.5 -9h-93q-13 0 -22.5 9t-9.5 22v438q0 13 9.5 22t22.5 9h54zM967 0h-54q-13 0 -22.5 9t-9.5 22v55zM788 180
v-149q0 -13 -9.5 -22t-22.5 -9h-93q-13 0 -22.5 9t-9.5 22v305zM1100 32q0 -13 -10 -22q-9 -10 -22 -10q-12 0 -21 9l-938 938q-9 9 -9 21q0 13 10 22q9 10 22 10q12 0 21 -9l478 -478v206q0 13 9.5 22t22.5 9h93q13 0 22.5 -9t9.5 -22v-362l93 -94v706q0 13 9.5 22t22.5 9
h93q13 0 22.5 -9t9.5 -22v-862l53 -54q9 -9 9 -21z" />
    <glyph glyph-name="uniF107" unicode="&#xf107;" 
d="M787 282q32 32 32 77v282q0 45 -32 77t-78 32h-500q-45 0 -77 -32t-32 -77v-282q0 -45 32 -77t77 -32h500q46 0 78 32zM1100 688v-375q0 -13 -9 -22.5t-22 -9.5q-7 0 -13 3l-175 78v276l175 78q4 2 13 2q10 0 17 -4q14 -9 14 -26z" />
    <glyph glyph-name="uniF108" unicode="&#xf108;" horiz-adv-x="1184" 
d="M1018.5 196q7.5 5 11.5 14q54 132 54 274q0 144 -54 274q-4 9 -12 14t-17 5q-3 0 -11 -2q-9 -4 -14.5 -12t-5.5 -18q0 -4 2 -10q50 -121 50 -251q0 -129 -50 -250q-2 -8 -2 -11q0 -10 5 -18t14 -12q4 -2 12 -2q10 0 17.5 5zM902 282q-8 -5 -17 -5q-4 0 -12 2
q-9 4 -14.5 12t-5.5 17q0 6 3 12q32 77 32 164q0 88 -32 165q-3 6 -3 12q0 9 5.5 16.5t14.5 11.5q6 3 12 3q9 0 17 -5.5t12 -14.5q37 -89 37 -188q0 -98 -37 -188q-4 -9 -12 -14zM785 368q-8 -5 -17 -5q-4 0 -12 2q-9 4 -14 12t-5 17q0 4 2 12q16 36 16 78t-16 78
q-2 8 -2 12q0 9 5 17t14 12q6 3 12 3q10 0 17.5 -5.5t11.5 -14.5q20 -46 20 -102q0 -55 -20 -102q-4 -9 -12 -14zM131 750q-13 0 -22 -9t-9 -22v-438q0 -13 9 -22t22 -9h157v500h-157zM626 986q5 -8 5 -17v-938q0 -9 -5 -17t-14 -12q-8 -2 -12 -2q-13 0 -22 9l-228 228v526
l228 228q9 9 22 9q8 0 12 -2q9 -4 14 -12z" />
    <glyph glyph-name="uniF109" unicode="&#xf109;" horiz-adv-x="1168" 
d="M1068 376q0 -14 -9 -23t-22 -9q-11 0 -22 9l-102 103l-103 -103q-12 -12 -31 -9q-17 5 -22 23q-1 3 -1 8q0 13 9 22l103 103l-103 103q-8 10 -8 21q0 14 9 23t22 9t22 -9l103 -103l102 103q11 9 22 9q13 0 22 -9t9 -23q0 -11 -8 -21l-103 -103l103 -103q8 -10 8 -21z
M131 750q-13 0 -22 -9t-9 -22v-438q0 -13 9 -22t22 -9h157v500h-157zM626 986q5 -8 5 -17v-938q0 -9 -5 -17t-14 -12q-8 -2 -12 -2q-13 0 -22 9l-228 228v526l228 228q9 9 22 9q8 0 12 -2q9 -4 14 -12z" />
    <glyph glyph-name="uniF110" unicode="&#xf110;" horiz-adv-x="1012" 
d="M421 25.5q39 -25.5 85 -25.5t85 25.5t58 68.5h-286q19 -43 58 -68.5zM903 397q-9 9 -22 9q-39 0 -66.5 27.5t-27.5 66.5v125q0 70 -33 131.5t-90 100.5t-127 47v65q0 13 -9 22t-22 9t-22 -9t-9 -22v-65q-70 -8 -127 -47t-90 -100.5t-33 -131.5v-125q0 -39 -27.5 -66.5
t-66.5 -27.5q-13 0 -22 -9t-9 -22v-187q0 -13 9 -22.5t22 -9.5h750q13 0 22 9.5t9 22.5v187q0 13 -9 22z" />
    <glyph glyph-name="uniF111" unicode="&#xf111;" 
d="M319 625v-125q0 -39 -27.5 -66.5t-66.5 -27.5q-13 0 -22 -9t-9 -22v-187q0 -13 9 -22.5t22 -9.5h586l-491 492q-1 -8 -1 -23zM515 25.5q-39 25.5 -58 68.5h286q-19 -43 -58 -68.5t-85 -25.5t-85 25.5zM1100 32q0 -13 -10 -22q-9 -10 -22 -10q-12 0 -21 9l-938 938
q-9 9 -9 21q0 13 10 22q9 10 22 10q12 0 21 -9l212 -212q35 53 88.5 85.5t115.5 39.5v65q0 13 9 22t22 9t22 -9t9 -22v-65q70 -8 127 -47t90 -100.5t33 -131.5v-125q0 -39 27.5 -66.5t66.5 -27.5q13 0 22 -9t9 -22v-187q0 -10 -5.5 -18t-14.5 -12l105 -105q9 -9 9 -21z" />
    <glyph glyph-name="uniF112" unicode="&#xf112;" horiz-adv-x="944" 
d="M472 0q47 0 110 7v0q63 7 116 41t86.5 87t40.5 116l12 111q8 74 8 138t-8 138l-12 111q-7 63 -40.5 116t-86.5 87t-116 41v0q-50 7 -110 7q-58 0 -110 -7v0q-63 -7 -116 -41t-86 -87t-40 -116l-13 -111q-7 -64 -7 -138t7 -138l13 -111q7 -63 40 -116t86 -87t116 -41v0
q65 -7 110 -7zM472 125q-4 0 -12 2q-9 4 -14 12t-5 17v269l-134 -135q-10 -8 -22 -8q-13 0 -22 9t-9 22q0 12 8 22l166 165l-166 165q-8 10 -8 22q0 13 9 22t22 9q12 0 22 -8l134 -135v269q0 9 5 17t14 12q8 2 12 2q13 0 22 -9l172 -172q9 -9 9 -22t-9 -22l-150 -150
l150 -150q9 -9 9 -22t-9 -22l-172 -172q-9 -9 -22 -9zM503 232l97 96l-97 97v-193zM504 573l104 97l-104 96v-193z" />
    <glyph glyph-name="uniF113" unicode="&#xf113;" horiz-adv-x="1190" 
d="M1015 501q13 0 22 9l44 44q9 9 9 22t-9 22l-22 22q-92 92 -213 142.5t-251 50.5t-251 -50.5t-213 -142.5l-22 -22q-9 -9 -9 -22t9 -22l44 -44q9 -9 22 -9t22 9l22 22q75 75 172.5 115.5t203.5 40.5t203.5 -40.5t172.5 -115.5l22 -22q9 -9 22 -9zM882 368q-13 0 -22 9
l-22 22q-49 50 -112 75.5t-131 25.5t-131 -25.5t-112 -75.5l-22 -22q-9 -9 -22 -9t-22 9l-45 44q-9 11 -9 23q0 11 9 22l23 22q68 68 153.5 102.5t177.5 34.5t178 -34.5t153 -102.5l23 -22q9 -11 9 -22q0 -12 -9 -23l-45 -44q-7 -9 -22 -9zM750 235q-12 0 -22 10l-22 22
q-23 22 -51.5 34t-59.5 12t-59.5 -12t-50.5 -34l-23 -22q-10 -10 -22 -10t-22 10l-44 44q-9 9 -9 22t9 22l22 22q40 40 91.5 61.5t107.5 21.5t107.5 -21.5t91.5 -61.5l22 -22q9 -9 9 -22t-9 -22l-44 -44v0q-10 -10 -22 -10zM661.5 222.5q27.5 -27.5 27.5 -66.5t-27.5 -66
t-66.5 -27t-66.5 27t-27.5 66t27.5 66.5t66.5 27.5t66.5 -27.5z" />
    <glyph glyph-name="uniF114" unicode="&#xf114;" 
d="M1091 897q9 -9 9 -22v-719q0 -13 -9 -22t-22 -9h-938q-13 0 -22 9t-9 22v719q0 13 9 22t22 9h282q57 0 107.5 -28.5t79.5 -77.5q29 49 79.5 77.5t108.5 28.5h281q13 0 22 -9zM497.5 326.5q40.5 -17.5 71.5 -48.5v410q0 42 -21 78t-57 57t-78 21h-250v-500h250
q44 0 84.5 -17.5zM703 327q41 17 85 17h250v500h-250q-43 0 -79 -21t-57 -57t-21 -78v-410q31 32 72 49zM466 697q9 9 9 22t-9 22t-22 9h-156q-13 0 -22.5 -9t-9.5 -22t9 -22t23 -9h156q13 0 22 9zM466 572q9 9 9 22t-9 22t-22 9h-156q-13 0 -22.5 -9t-9.5 -22t9 -22t23 -9
h156q13 0 22 9zM466 447q9 9 9 22t-9 22t-22 9h-156q-13 0 -22.5 -9t-9.5 -22t9 -22t23 -9h156q13 0 22 9zM935 697q9 9 9 22t-9 22t-22 9h-157q-13 0 -22 -9t-9 -22t9 -22t22 -9h157q13 0 22 9zM935 572q9 9 9 22t-9 22t-22 9h-157q-13 0 -22 -9t-9 -22t9 -22t22 -9h157
q13 0 22 9zM935 447q9 9 9 22t-9 22t-22 9h-157q-13 0 -22 -9t-9 -22t9 -22t22 -9h157q13 0 22 9z" />
    <glyph glyph-name="uniF115" unicode="&#xf115;" horiz-adv-x="1012" 
d="M868.5 238.5q-7.5 -11.5 -13 -33t-5.5 -49.5q0 -27 5.5 -48.5t13 -33t12.5 -11.5q13 0 22 -9.5t9 -22.5t-9 -22t-22 -9h-625q-42 0 -78 21t-57 57t-21 78v688q0 42 21 78t57 57t78 21h625q13 0 22 -9t9 -22v-688q0 -13 -9 -22t-22 -9q-5 0 -12.5 -11.5zM787 157
q0 48 18 93h-549q-39 0 -66.5 -27.5t-27.5 -66.5t27.5 -66t66.5 -27h549q-18 45 -18 94zM747 603q9 9 9 22t-9 22t-22 9h-375q-13 0 -22 -9t-9 -22t9 -22t22 -9h375q13 0 22 9zM747 759q9 9 9 22t-9 22.5t-22 9.5h-375q-13 0 -22 -9t-9 -23q0 -13 9 -22t22 -9h375q13 0 22 9
z" />
    <glyph glyph-name="u1F516" unicode="&#xf116;" horiz-adv-x="762" 
d="M653 9q9 9 9 22v938q0 13 -9 22t-22 9h-500q-13 0 -22 -9t-9 -22v-938q0 -8 4.5 -15.5t11.5 -11.5t15 -4q9 0 17 5l233 146l233 -146q8 -5 17 -5q13 0 22 9z" />
    <glyph glyph-name="uniF117" unicode="&#xf117;" 
d="M402 344h396q14 39 43 68q50 48 76.5 112t26.5 132q0 66 -26 130q-39 97 -125.5 155.5t-191.5 58.5q-104 1 -191 -57t-127 -154q-27 -64 -27 -133q0 -68 26 -131t75 -111q29 -29 45 -70zM810 272q9 -9 9 -22t-9 -22t-22 -9v-86q0 -27 -15.5 -49.5t-40.5 -33.5l-120 -48
q-8 -2 -12 -2t-12 2l-120 48q-25 11 -40.5 33.5t-14.5 49.5v86q-13 0 -22.5 9t-9.5 22t9.5 22t22.5 9h375q13 0 22 -9zM403.5 634q-9.5 -9 -22.5 -9t-22 9t-9 22q0 11 2 33q1 13 11.5 21t23.5 6q13 -1 21 -11.5t6 -23.5q-1 -8 -1 -25q0 -13 -9.5 -22zM449 783q-6 0 -9 1
q-8 2 -14.5 8.5t-7.5 14.5q-1 2 -1 7q0 15 11 24q34 33 79 50.5t93 17.5q13 0 22 -9t9 -22t-9 -22t-22 -9q-36 0 -69.5 -13.5t-59.5 -38.5q-9 -9 -22 -9zM185 634q-9 -9 -22 -9h-32q-13 0 -22 9t-9 22t9 22.5t22 9.5h32q13 0 22 -9.5t9 -22.5t-9 -22zM1091 634q-9 -9 -22 -9
h-31q-13 0 -22.5 9t-9.5 22q0 14 9.5 23t22.5 9h31q13 0 22 -9.5t9 -22.5t-9 -22zM188.5 900.5q-7.5 -3.5 -15.5 -3.5q-10 0 -16 5l-31 19q-15 9 -15 28q2 18 17 27q6 3 14 3t18 -5l30 -19q11 -8 14 -20q1 -2 1 -7q0 -9 -5 -17q-4 -7 -11.5 -10.5zM1064 334h-5q-12 0 -18 5
l-31 19q-15 9 -15 27q0 8 5 16q9 15 27 15q9 0 17 -5l30 -20q11 -6 14 -19q1 -2 1 -7q0 -9 -5 -17q-8 -11 -20 -14zM1027 897q-17 0 -26 14q-5 6 -5 17q0 8 3.5 15.5t10.5 11.5l31 19q8 5 16 5q18 0 27 -15q5 -8 5 -16q0 -18 -15 -27l-30 -19q-6 -5 -17 -5zM143 334
q-8 0 -15.5 3.5t-11.5 10.5q-5 8 -5 17q0 17 15 26l31 20q8 5 16 5q18 0 27 -15q5 -8 5 -16q0 -18 -15 -27l-30 -19q-6 -5 -17 -5z" />
    <glyph glyph-name="uniF118" unicode="&#xf118;" horiz-adv-x="888" 
d="M246 344h396q14 39 43 68q50 48 76.5 112t26.5 132q0 66 -26 130q-39 97 -125.5 155.5t-191.5 58.5q-104 1 -191 -57t-127 -154q-27 -64 -27 -133q0 -68 26 -131t75 -111q29 -29 45 -70zM654 272q9 -9 9 -22t-9 -22t-22 -9v-86q0 -27 -15.5 -49.5t-40.5 -33.5l-120 -48
q-8 -2 -12 -2t-12 2l-120 48q-25 11 -40.5 33.5t-14.5 49.5v86q-13 0 -22.5 9t-9.5 22t9.5 22t22.5 9h375q13 0 22 -9zM247.5 634q-9.5 -9 -22.5 -9t-22 9t-9 22q0 11 2 33q1 13 11.5 21t23.5 6q13 -1 21 -11.5t6 -23.5q-1 -8 -1 -25q0 -13 -9.5 -22zM293 783q-6 0 -9 1
q-8 2 -14.5 8.5t-7.5 14.5q-1 2 -1 7q0 15 11 24q34 33 79 50.5t93 17.5q13 0 22 -9t9 -22t-9 -22t-22 -9q-36 0 -69.5 -13.5t-59.5 -38.5q-9 -9 -22 -9z" />
    <glyph glyph-name="uniF119" unicode="&#xf119;" 
d="M1100 924q0 -13 -6 -27q-77 -174 -189 -321q-68 -89 -156 -156t-191 -107q14 -40 14 -80q0 -35 -11 -71q-19 -49 -56.5 -85.5t-87.5 -53.5q-32 -13 -70 -13q-63 0 -118 36q-54 34 -87.5 88.5t-41.5 118.5v3q0 13 9 22q12 10 25 9q29 -2 55.5 10.5t43.5 36.5l10 17
q11 19 13 22q24 33 60 51.5t77 18.5q9 0 27 -2q41 105 108.5 195.5t157.5 158.5q147 112 321 189q14 6 27 6q26 0 47 -19q19 -21 19 -47zM477 416l49 -49q101 37 181 100l-130 130q-63 -80 -100 -181z" />
    <glyph glyph-name="uniF120" unicode="&#xf120;" horiz-adv-x="857" 
d="M623 804q-9 9 -23 9h-343q-13 0 -22.5 -9t-9.5 -23v-93h407v93q0 14 -9 23zM225 313v125h407v-125h-407zM225 500v125h407v-125h-407zM622.5 134q-9.5 -9 -22.5 -9h-343q-13 0 -22.5 9t-9.5 22v94h407v-94q0 -13 -9.5 -22zM720.5 901.5q-36.5 36.5 -88.5 36.5h-75l-22 45
q-5 8 -12.5 12.5t-15.5 4.5h-157q-18 0 -28 -17l-22 -45h-75q-52 0 -88.5 -36.5t-36.5 -88.5v-688q0 -52 36.5 -88.5t88.5 -36.5h406q52 0 89 36.5t37 88.5v688q0 52 -36.5 88.5zM676 81q-18 -18 -44 -18h-407q-26 0 -44 18t-18 44v688q0 26 18.5 44t43.5 18h407
q26 0 44 -18t18 -44v-688q0 -26 -18 -44z" />
    <glyph glyph-name="uniF121" unicode="&#xf121;" horiz-adv-x="857" 
d="M225 313v125h407v-125h-407zM622.5 134q-9.5 -9 -22.5 -9h-343q-13 0 -22.5 9t-9.5 22v94h407v-94q0 -13 -9.5 -22zM720.5 901.5q-36.5 36.5 -88.5 36.5h-75l-22 45q-5 8 -12.5 12.5t-15.5 4.5h-157q-18 0 -28 -17l-22 -45h-75q-52 0 -88.5 -36.5t-36.5 -88.5v-688
q0 -52 36.5 -88.5t88.5 -36.5h407q52 0 88.5 36.5t36.5 88.5v688q0 52 -36.5 88.5zM676 81q-18 -18 -44 -18h-407q-26 0 -44 18t-18 44v688q0 26 18.5 44t43.5 18h407q26 0 44 -18t18 -44v-688q0 -26 -18 -44z" />
    <glyph glyph-name="uniF122" unicode="&#xf122;" horiz-adv-x="857" 
d="M575 556q9 9 9 22t-9 22t-22 9q-11 0 -22 -9l-103 -103l-103 103q-9 9 -21 9q-13 0 -22 -9q-10 -10 -10 -23q0 -12 9 -21l103 -103l-103 -103q-9 -9 -9 -21q0 -13 10 -23q9 -9 22 -9q12 0 21 9l103 103l103 -103q9 -9 22 -9q6 0 9 1q17 3 22 22q1 3 1 8q0 13 -10 22
l-102 103zM720.5 901.5q36.5 -36.5 36.5 -88.5v-688q0 -52 -36.5 -88.5t-88.5 -36.5h-407q-52 0 -88.5 36.5t-36.5 88.5v688q0 52 36.5 88.5t88.5 36.5h75l22 45q10 17 28 17h157q8 0 15.5 -4.5t12.5 -12.5l22 -45h75q52 0 88.5 -36.5zM676 857q-18 18 -44 18h-407
q-25 0 -43.5 -18t-18.5 -44v-688q0 -26 18 -44t44 -18h407q26 0 44 18t18 44v688q0 26 -18 44z" />
    <glyph glyph-name="uniF123" unicode="&#xf123;" horiz-adv-x="1138" 
d="M975 735q-63 108 -171 171t-235 63t-235 -63t-171 -171t-63 -235t63 -235t171 -171t235 -63t235 63t171 171t63 235t-63 235zM522 297q-13 0 -22 9l-203 203q-12 12 -9 31q2 8 8.5 14t14.5 8q2 1 7 1q13 0 23 -10l181 -181l275 275q9 9 22 9t22 -9t9 -22t-9 -22
l-297 -297q-9 -9 -22 -9z" />
    <glyph glyph-name="uniF124" unicode="&#xf124;" horiz-adv-x="1075" 
d="M966 72q9 9 9 22v812q0 14 -9 23t-23 9h-812q-13 0 -22 -9t-9 -23v-812q0 -13 9 -22t22 -9h812q14 0 23 9zM490 297q-13 0 -22 9l-203 203q-12 12 -9 31q2 8 8.5 14t14.5 8q2 1 7 1q13 0 23 -10l181 -181l275 275q9 9 22 9t22 -9t9 -22t-9 -22l-297 -297q-9 -9 -22 -9z
" />
    <glyph glyph-name="uniF125" unicode="&#xf125;" horiz-adv-x="1180" 
d="M100 562q0 13 9 22l88 88q9 9 22 9t22 -9l287 -287l411 411q8 8 22 8t22 -8l88 -89q9 -9 9 -22t-9 -22l-521 -521q-9 -9 -22 -9t-22 9l-397 397q-9 11 -9 23z" />
    <glyph glyph-name="uniF126" unicode="&#xf126;" horiz-adv-x="1138" 
d="M975 735q-63 108 -171 171t-235 63t-235 -63t-171 -171t-63 -235t63 -235t171 -171t235 -63t235 63t171 171t63 235t-63 235zM803 297q0 -13 -9 -22t-22 -9t-22 9l-181 181l-181 -181q-13 -13 -30 -9q-8 2 -14.5 8.5t-8.5 14.5q-1 2 -1 7q0 13 10 23l181 181l-181 181
q-9 9 -9 22t9 22t22 9t22 -9l181 -181l181 181q9 9 22 9t22 -9t9 -22t-9 -22l-181 -181l181 -181q9 -9 9 -22z" />
    <glyph glyph-name="uniF127" unicode="&#xf127;" horiz-adv-x="1075" 
d="M966 72q9 9 9 22v812q0 14 -9 23t-23 9h-812q-13 0 -22 -9t-9 -23v-812q0 -13 9 -22t22 -9h812q14 0 23 9zM802 266q0 -13 -9 -22t-22 -9q-11 0 -22 9l-212 212l-212 -212q-9 -10 -23 -10q-5 0 -8 1q-17 5 -22 22q-1 3 -1 8q0 14 10 23l212 212l-212 212q-10 9 -10 23
q0 5 1 8q5 17 22 22q3 1 8 1q14 0 23 -10l212 -212l212 212q9 10 23 10q5 0 8 -1q17 -5 22 -22q1 -3 1 -8q0 -14 -10 -23l-212 -212l212 -212q9 -9 9 -22z" />
    <glyph glyph-name="uniF128" unicode="&#xf128;" horiz-adv-x="1002" 
d="M902 219q0 -13 -9 -22l-89 -89q-9 -9 -22 -9t-22 9l-259 259l-259 -259q-9 -9 -22 -9t-22 9l-89 89q-9 9 -9 22t9 22l259 259l-259 259q-9 9 -9 22t9 22l89 89q9 9 22 9t22 -9l259 -259l259 259q9 9 22 9t22 -9l89 -89q9 -9 9 -22t-9 -22l-259 -259l259 -259q9 -9 9 -22z
" />
    <glyph glyph-name="uniF129" unicode="&#xf129;" horiz-adv-x="1134" 
d="M982.5 478q-9.5 9 -9.5 22t9.5 22t22.5 9h29q-8 121 -72.5 221.5t-168.5 158.5t-226 58t-226 -58t-168.5 -158.5t-72.5 -221.5h30q13 0 22 -9t9 -22t-9 -22t-22 -9h-30q7 -115 66.5 -212.5t157 -157t212.5 -66.5v30q0 13 9 22t22 9t22 -9t9 -22v-30q115 7 212.5 66.5
t157 157t66.5 212.5h-29q-13 0 -22.5 9zM589 866q9 -9 9 -22v-406q0 -13 -9 -22.5t-22 -9.5t-22 9.5t-9 22.5v31h-31q-13 0 -22.5 9t-9.5 22t9.5 22t22.5 9h31v313q0 13 9 22t22 9t22 -9zM870.5 522q9.5 -9 9.5 -22t-9.5 -22t-22.5 -9h-187v62h187q13 0 22.5 -9z" />
    <glyph glyph-name="uniF130" unicode="&#xf130;" 
d="M1055.5 517.5q-44.5 55.5 -113.5 70.5q2 14 2 21q0 47 -23 86.5t-62.5 62.5t-86.5 23q-41 0 -74 -17q-41 53 -99.5 81.5t-124.5 28.5q-67 0 -125 -29q-72 -36 -113.5 -104.5t-41.5 -148.5q0 -39 10 -75q-48 -20 -76 -62.5t-28 -93.5q0 -20 4 -36q12 -60 59 -98.5
t109 -38.5h625q55 0 101.5 27t74 73.5t27.5 102.5q0 71 -44.5 126.5zM788 469q0 -13 -10 -22l-156 -157q-9 -9 -22 -9t-22 9l-156 157q-9 9 -9 22q0 12 9 21q9 10 22 10t22 -9l103 -103v268q0 13 9 22.5t22 9.5t22 -9.5t9 -22.5v-268l103 103q9 9 22 9t22 -9q10 -9 10 -22z
" />
    <glyph glyph-name="uniF131" unicode="&#xf131;" 
d="M1055.5 517.5q-44.5 55.5 -113.5 70.5q2 14 2 21q0 47 -23 86.5t-62.5 62.5t-86.5 23q-38 0 -74 -17q-41 53 -99.5 81.5t-124.5 28.5q-67 0 -125 -29q-72 -36 -113.5 -104.5t-41.5 -148.5q0 -39 10 -75q-48 -20 -76 -62.5t-28 -93.5q0 -20 4 -36q12 -60 59 -98.5
t109 -38.5h625q55 0 101.5 27t74 73.5t27.5 102.5q0 71 -44.5 126.5zM787 500q0 -13 -9 -22t-22 -9t-22 9l-103 103v-268q0 -13 -9 -22.5t-22 -9.5t-22 9.5t-9 22.5v268l-103 -103q-9 -9 -22 -9t-22 9t-9 22t9 22l156 156q9 10 22 10t22 -10l156 -156q9 -9 9 -22z" />
    </font>
</defs>
</svg>
