<?xml version="1.0" standalone="no"?>
<!DOCTYPE svg PUBLIC "-//W3C//DTD SVG 1.1//EN" "http://www.w3.org/Graphics/SVG/1.1/DTD/svg11.dtd" >
<svg xmlns="http://www.w3.org/2000/svg">
<metadata>Generated by IcoMoon</metadata>
<defs>
<font id="icomoon" horiz-adv-x="1024">
<font-face units-per-em="1024" ascent="960" descent="-64" />
<missing-glyph horiz-adv-x="1024" />
<glyph unicode="&#x20;" d="" horiz-adv-x="512" />
<glyph unicode="&#xe000;" d="M261.254 912.758l43.012 43.016 506.64-506.632-1.142-1.142 1.142-1.14-506.634-506.634-43.018 43.016 464.76 464.76z" />
<glyph unicode="&#xe001;" d="M768.666-16.756l-43.012-43.018-506.638 506.634 1.142 1.142-1.142 1.142 506.632 506.632 43.018-43.016-464.76-464.76z" />
<glyph unicode="&#xe002;" d="M1007.728 94.002l-246.59 246.58c36.202 60.716 57.036 131.612 57.036 207.29 0 223.888-182.15 406.040-406.040 406.040-223.884 0-406.036-182.152-406.036-406.040 0-223.89 182.152-406.032 406.038-406.032 75.492 0 146.22 20.732 206.84 56.766 0.036-0.036 0.064-0.076 0.102-0.114l246.582-246.568c11.268-11.286 29.832-10.992 41.46 0.636l99.968 99.974c11.628 11.616 11.912 30.196 0.64 41.468zM105.412 547.872c0 169.126 137.596 306.722 306.722 306.722 169.128 0 306.722-137.594 306.722-306.722 0-169.122-137.594-306.716-306.722-306.716-169.126 0-306.722 137.594-306.722 306.716z" />
<glyph unicode="&#xe003;" d="M937.080 155.568l-300.752 300.752 280.272 280.272c7.142 7.142 7.806 18.056 1.484 24.378l-98.344 98.346c-6.322 6.322-17.238 5.656-24.378-1.484l-280.272-280.272-281.552 281.55c-7.142 7.142-18.056 7.806-24.378 1.484l-98.344-98.344c-6.322-6.322-5.658-17.238 1.484-24.378l281.55-281.552-302.032-302.032c-7.14-7.142-7.806-18.054-1.484-24.378l98.348-98.344c6.32-6.322 17.236-5.658 24.378 1.484l302.032 302.032 300.748-300.752c7.142-7.142 18.056-7.808 24.378-1.484l98.348 98.344c6.318 6.322 5.654 17.234-1.486 24.378z" />
<glyph unicode="&#xe004;" d="M1013.402 952.632l10.862-10.86-1006.072-1006.072-10.86 10.86z" />
<glyph unicode="&#xe005;" d="M407.758 552.054h-396.494v396.496h396.494v-396.496zM35.84 576.63h347.342v347.344h-347.342v-347.344zM1017.038 552.054h-396.494v396.496h396.494v-396.496zM645.12 576.63h347.342v347.344h-347.342v-347.344zM408.27-57.038h-396.494v396.494h396.494v-396.494zM36.352-32.462h347.342v347.342h-347.342v-347.342zM1017.55-57.038h-396.494v396.494h396.494v-396.494zM645.632-32.462h347.342v347.342h-347.342v-347.342z" />
<glyph unicode="&#xe006;" d="M266.664 919.454l16.482 16.466 487.896-487.936-487.906-487.904-16.472 16.47 471.456 471.456z" />
<glyph unicode="&#xe007;" d="M735.206 919.454l-16.48 16.466-487.902-487.936 487.912-487.904 16.47 16.47-471.454 471.456z" />
<glyph unicode="&#xe008;" d="M976.752 681.866l43.018-43.008-506.634-506.64-1.136 1.138-1.146-1.142-506.63 506.628 43.014 43.018 464.762-464.756 464.752 464.762z" />
<glyph unicode="&#xe009;" d="M559.066 896c0 0-200.956 0-267.94 0-120.12 0-233.17-91.006-233.17-196.422 0-107.726 81.882-194.666 204.088-194.666 8.498 0 16.756 0.17 24.842 0.752-7.93-15.186-13.602-32.288-13.602-50.042 0-29.938 16.104-54.21 36.468-74.024-15.386 0-30.242-0.448-46.452-0.448-148.782 0.002-263.3-94.758-263.3-193.020 0-96.778 125.542-157.314 274.334-157.314 169.624 0 263.306 96.244 263.306 193.028 0 77.6-22.896 124.072-93.686 174.134-24.216 17.144-70.53 58.836-70.53 83.344 0 28.72 8.196 42.868 51.428 76.646 44.312 34.624 75.672 83.302 75.672 139.916 0 67.406-30.020 133.098-86.372 154.772h84.954l59.96 43.344zM465.48 240.542c2.126-8.972 3.284-18.206 3.284-27.628 0-78.2-50.392-139.31-194.974-139.31-102.842 0-177.116 65.104-177.116 143.3 0 76.642 92.126 140.444 194.964 139.332 24-0.254 46.368-4.116 66.67-10.69 55.826-38.826 95.876-60.762 107.172-105.004zM300.818 532.224c-69.038 2.064-134.636 77.226-146.552 167.86-11.916 90.666 34.37 160.042 103.388 157.99 69.010-2.074 134.638-74.814 146.558-165.458 11.906-90.66-34.39-162.458-103.394-160.392zM832 704v192h-64v-192h-192v-64h192v-192h64v192h192v64z" />
<glyph unicode="&#xe00a;" d="M575.87-64h-191.87v512h-128v176.45l128 0.058-0.208 103.952c0 143.952 39.034 231.54 208.598 231.54h141.176v-176.484h-88.23c-66.032 0-69.206-24.656-69.206-70.684l-0.262-88.324h158.69l-18.704-176.45-139.854-0.058-0.13-512z" />
<glyph unicode="&#xe00b;" d="M1024 765.582c-37.676-16.708-78.164-28.002-120.66-33.080 43.372 26 76.686 67.17 92.372 116.23-40.596-24.078-85.556-41.56-133.41-50.98-38.32 40.83-92.922 66.34-153.346 66.34-116.022 0-210.088-94.058-210.088-210.078 0-16.466 1.858-32.5 5.44-47.878-174.6 8.764-329.402 92.4-433.018 219.506-18.084-31.028-28.446-67.116-28.446-105.618 0-72.888 37.088-137.192 93.46-174.866-34.438 1.092-66.832 10.542-95.154 26.278-0.020-0.876-0.020-1.756-0.020-2.642 0-101.788 72.418-186.696 168.522-206-17.626-4.8-36.188-7.372-55.348-7.372-13.538 0-26.698 1.32-39.528 3.772 26.736-83.46 104.32-144.206 196.252-145.896-71.9-56.35-162.486-89.934-260.916-89.934-16.958 0-33.68 0.994-50.116 2.94 92.972-59.61 203.402-94.394 322.042-94.394 386.422 0 597.736 320.124 597.736 597.744 0 9.108-0.206 18.168-0.61 27.18 41.056 29.62 76.672 66.62 104.836 108.748z" />
<glyph unicode="&#xe00c;" d="M985.186 654.11l16.47-16.48-487.94-487.896-487.906 487.906 16.47 16.47 471.456-471.454z" />
<glyph unicode="&#xe00d;" d="M512 960c-282.77 0-512-229.23-512-512s229.226-512 512-512c282.77 0 512 229.23 512 512s-229.23 512-512 512zM561.644 275.882c-46.52 3.614-66.042 26.656-102.504 48.808-20.060-105.176-44.564-206.016-117.14-258.686-22.404 158.968 32.894 278.364 58.57 405.114-43.784 73.706 5.27 222.034 97.62 185.474 113.626-44.948-98.4-274.008 43.932-302.616 148.62-29.868 209.288 257.858 117.142 351.424-133.158 135.106-387.598 3.080-356.31-190.356 7.614-47.292 56.472-61.638 19.524-126.902-85.22 18.892-110.65 86.102-107.376 175.712 5.268 146.674 131.784 249.364 258.686 263.566 160.484 17.964 311.106-58.908 331.906-209.876 23.412-170.39-72.448-354.93-244.050-341.662z" />
<glyph unicode="&#xe00e;" d="M1024 601.844c0-86.362-37.218-164.030-96.49-217.844h0.49l-320-320c-32-32-64-64-96-64s-64 32-96 64l-320 320h0.49c-59.272 53.814-96.49 131.482-96.49 217.844 0 162.458 131.698 294.156 294.156 294.156 86.362 0 164.030-37.218 217.844-96.49 53.814 59.272 131.482 96.49 217.844 96.49 162.456 0 294.156-131.698 294.156-294.156z" />
<glyph unicode="&#xe00f;" d="M1024 601.844c0 162.458-131.7 294.156-294.156 294.156-86.362 0-164.030-37.218-217.844-96.49-53.814 59.272-131.482 96.49-217.844 96.49-162.458 0-294.156-131.698-294.156-294.156 0-86.362 37.218-164.030 96.49-217.844h-0.49l320-320c32-32 64-64 96-64s64 32 96 64l320 320h-0.49c59.272 53.814 96.49 131.482 96.49 217.844zM841.468 478.768l-323.978-324.258c-1.678-1.678-3.532-3.532-5.49-5.48-1.96 1.95-3.814 3.802-5.49 5.48l-323.978 324.256c-35.166 31.928-54.532 75.638-54.532 123.078 0 91.618 74.538 166.156 166.156 166.156 47.44 0 91.15-19.366 123.076-54.532l94.768-104.38 94.768 104.378c31.928 35.168 75.636 54.534 123.076 54.534 91.618 0 166.156-74.538 166.156-166.156 0-47.44-19.368-91.15-54.532-123.076z" />
<glyph unicode="&#xe010;" d="M580.142 516.166v443.858h-136.262v-443.858h-443.856v-136.216h443.856v-443.926h136.262v443.926h443.834v136.216z" />
<glyph unicode="&#xe011;" d="M639.77 838.954l-48.598-84.2 112.216-64.8 48.6 84.204-112.218 64.796zM558.774 698.646l-242.994-420.852 112.216-64.796 242.994 420.852-112.216 64.796zM690.816 884.308l74.922-43.286c41.682-24.046 55.52-76.564 31.726-117.784l-70.364-121.79-275.394-477.042-169.254-111.708c-40.96-27.004-70.24-9.026-67.328 38.894l12.148 202.412 345.676 598.836c23.876 41.214 76.524 55.304 117.868 31.468zM274.69 76.986l120.908 79.818-112.218 64.8-8.69-144.618z" />
<glyph unicode="&#xe012;" d="M882.402 655.084h-113.644v45.506c0 142.796-115.752 258.55-258.54 258.55s-258.54-115.754-258.54-258.55v-45.506h-113.612c-46.982 0-85.064-46.726-85.064-104.346v-508.672c0-57.64 38.082-104.356 85.064-104.356h744.336c46.96 0 85.044 46.726 85.044 104.356l-0.002 508.672c0 57.62-38.082 104.346-85.042 104.346zM360.93 700.59c0 82.32 66.97 149.3 149.3 149.3s149.3-66.98 149.3-149.3v-45.506h-298.598l-0.002 45.506zM858.204 46.94h-695.962v498.892h695.952v-498.892z" />
<glyph unicode="&#xe013;" d="M416.554 473.944c0 0 94.142 6.994 94.142 117.398 0 110.402-77.026 164.276-174.588 164.276h-321.048v-616.978h321.050c0 0 195.974-6.17 195.974 182.11-0.002-0.002 8.554 153.194-115.53 153.194zM312.99 645.964h23.12c0 0 43.634 0 43.634-64.186s-25.676-73.496-54.772-73.496h-168.458v137.682h156.476zM328.006 248.296h-171.492v164.882h179.596c0 0 65.040 0.856 65.040-84.728 0-71.176-47.356-79.4-73.144-80.154zM793.472 598.646c-237.262 0-237.038-237.042-237.038-237.042s-16.294-235.846 237.052-235.846c0 0 211.106-12.062 211.106 164.064h-108.57c0 0 3.614-66.342-98.928-66.342 0 0-108.566-7.26-108.566 107.352h319.692c-0.002 0 34.97 267.814-214.748 267.814zM889.986 413.178h-202.676c0 0 13.27 95.104 108.584 95.104 95.306 0 94.092-95.104 94.092-95.104zM660.752 719.282h254.54v-76h-254.54z" />
<glyph unicode="&#xe014;" d="M0 651.63l41.594-54.544c0 0 85.77 67.608 114.36 33.802 28.588-33.802 137.736-441.956 174.17-517.246 31.8-66.030 119.518-153.32 215.714-90.982 96.136 62.34 415.84 335.286 473.066 657.616 57.18 322.226-384.72 254.726-431.53-26.010 116.99 70.236 179.436-28.538 119.57-140.372-59.758-111.724-114.36-184.592-142.952-184.592-28.538 0-50.49 74.768-83.188 205.446-33.798 135.102-33.592 378.46-174.116 350.87-132.518-26.012-306.688-233.988-306.688-233.988z" />
<glyph unicode="&#xe015;" d="M261.254 912.758l43.012 43.016 506.64-506.632-1.142-1.142 1.142-1.14-506.634-506.634-43.018 43.016 464.76 464.76z" />
<glyph unicode="&#xe016;" d="M768.666-16.756l-43.012-43.018-506.638 506.634 1.142 1.142-1.142 1.142 506.632 506.632 43.018-43.016-464.76-464.76z" />
<glyph unicode="&#xe017;" d="M937.080 155.568l-300.752 300.752 280.272 280.272c7.142 7.142 7.806 18.056 1.484 24.378l-98.344 98.346c-6.322 6.322-17.238 5.656-24.378-1.484l-280.272-280.272-281.552 281.55c-7.142 7.142-18.056 7.806-24.378 1.484l-98.344-98.344c-6.322-6.322-5.658-17.238 1.484-24.378l281.55-281.552-302.032-302.032c-7.14-7.142-7.806-18.054-1.484-24.378l98.348-98.344c6.32-6.322 17.236-5.658 24.378 1.484l302.032 302.032 300.748-300.752c7.142-7.142 18.056-7.808 24.378-1.484l98.348 98.344c6.318 6.322 5.654 17.234-1.486 24.378z" />
<glyph unicode="&#xe018;" d="M407.758 552.054h-396.494v396.496h396.494v-396.496zM35.84 576.63h347.342v347.344h-347.342v-347.344zM1017.038 552.054h-396.494v396.496h396.494v-396.496zM645.12 576.63h347.342v347.344h-347.342v-347.344zM408.27-57.038h-396.494v396.494h396.494v-396.494zM36.352-32.462h347.342v347.342h-347.342v-347.342zM1017.55-57.038h-396.494v396.494h396.494v-396.494zM645.632-32.462h347.342v347.342h-347.342v-347.342z" />
<glyph unicode="&#xe019;" d="M266.664 919.454l16.482 16.466 487.896-487.936-487.906-487.904-16.472 16.47 471.456 471.456z" />
<glyph unicode="&#xe01a;" d="M735.206 919.454l-16.48 16.466-487.902-487.936 487.912-487.904 16.47 16.47-471.454 471.456z" />
<glyph unicode="&#xe01b;" d="M976.752 681.866l43.018-43.008-506.634-506.64-1.136 1.138-1.146-1.142-506.63 506.628 43.014 43.018 464.762-464.756 464.752 464.762z" />
<glyph unicode="&#xe01c;" d="M985.186 654.11l16.47-16.48-487.94-487.896-487.906 487.906 16.47 16.47 471.456-471.454z" />
<glyph unicode="&#xe01d;" d="M559.066 896c0 0-200.956 0-267.94 0-120.12 0-233.17-91.006-233.17-196.422 0-107.726 81.882-194.666 204.088-194.666 8.498 0 16.756 0.17 24.842 0.752-7.93-15.186-13.602-32.288-13.602-50.042 0-29.938 16.104-54.21 36.468-74.024-15.386 0-30.242-0.448-46.452-0.448-148.782 0.002-263.3-94.758-263.3-193.020 0-96.778 125.542-157.314 274.334-157.314 169.624 0 263.306 96.244 263.306 193.028 0 77.6-22.896 124.072-93.686 174.134-24.216 17.144-70.53 58.836-70.53 83.344 0 28.72 8.196 42.868 51.428 76.646 44.312 34.624 75.672 83.302 75.672 139.916 0 67.406-30.020 133.098-86.372 154.772h84.954l59.96 43.344zM465.48 240.542c2.126-8.972 3.284-18.206 3.284-27.628 0-78.2-50.392-139.31-194.974-139.31-102.842 0-177.116 65.104-177.116 143.3 0 76.642 92.126 140.444 194.964 139.332 24-0.254 46.368-4.116 66.67-10.69 55.826-38.826 95.876-60.762 107.172-105.004zM300.818 532.224c-69.038 2.064-134.636 77.226-146.552 167.86-11.916 90.666 34.37 160.042 103.388 157.99 69.010-2.074 134.638-74.814 146.558-165.458 11.906-90.66-34.39-162.458-103.394-160.392zM832 704v192h-64v-192h-192v-64h192v-192h64v192h192v64z" />
<glyph unicode="&#xe01e;" d="M575.87-64h-191.87v512h-128v176.45l128 0.058-0.208 103.952c0 143.952 39.034 231.54 208.598 231.54h141.176v-176.484h-88.23c-66.032 0-69.206-24.656-69.206-70.684l-0.262-88.324h158.69l-18.704-176.45-139.854-0.058-0.13-512z" />
<glyph unicode="&#xe01f;" d="M1024 765.582c-37.676-16.708-78.164-28.002-120.66-33.080 43.372 26 76.686 67.17 92.372 116.23-40.596-24.078-85.556-41.56-133.41-50.98-38.32 40.83-92.922 66.34-153.346 66.34-116.022 0-210.088-94.058-210.088-210.078 0-16.466 1.858-32.5 5.44-47.878-174.6 8.764-329.402 92.4-433.018 219.506-18.084-31.028-28.446-67.116-28.446-105.618 0-72.888 37.088-137.192 93.46-174.866-34.438 1.092-66.832 10.542-95.154 26.278-0.020-0.876-0.020-1.756-0.020-2.642 0-101.788 72.418-186.696 168.522-206-17.626-4.8-36.188-7.372-55.348-7.372-13.538 0-26.698 1.32-39.528 3.772 26.736-83.46 104.32-144.206 196.252-145.896-71.9-56.35-162.486-89.934-260.916-89.934-16.958 0-33.68 0.994-50.116 2.94 92.972-59.61 203.402-94.394 322.042-94.394 386.422 0 597.736 320.124 597.736 597.744 0 9.108-0.206 18.168-0.61 27.18 41.056 29.62 76.672 66.62 104.836 108.748z" />
<glyph unicode="&#xe020;" d="M512 960c-282.77 0-512-229.23-512-512s229.226-512 512-512c282.77 0 512 229.23 512 512s-229.23 512-512 512zM561.644 275.882c-46.52 3.614-66.042 26.656-102.504 48.808-20.060-105.176-44.564-206.016-117.14-258.686-22.404 158.968 32.894 278.364 58.57 405.114-43.784 73.706 5.27 222.034 97.62 185.474 113.626-44.948-98.4-274.008 43.932-302.616 148.62-29.868 209.288 257.858 117.142 351.424-133.158 135.106-387.598 3.080-356.31-190.356 7.614-47.292 56.472-61.638 19.524-126.902-85.22 18.892-110.65 86.102-107.376 175.712 5.268 146.674 131.784 249.364 258.686 263.566 160.484 17.964 311.106-58.908 331.906-209.876 23.412-170.39-72.448-354.93-244.050-341.662z" />
<glyph unicode="&#xe021;" d="M1024 601.844c0-86.362-37.218-164.030-96.49-217.844h0.49l-320-320c-32-32-64-64-96-64s-64 32-96 64l-320 320h0.49c-59.272 53.814-96.49 131.482-96.49 217.844 0 162.458 131.698 294.156 294.156 294.156 86.362 0 164.030-37.218 217.844-96.49 53.814 59.272 131.482 96.49 217.844 96.49 162.456 0 294.156-131.698 294.156-294.156z" />
<glyph unicode="&#xe022;" d="M1024 601.844c0 162.458-131.7 294.156-294.156 294.156-86.362 0-164.030-37.218-217.844-96.49-53.814 59.272-131.482 96.49-217.844 96.49-162.458 0-294.156-131.698-294.156-294.156 0-86.362 37.218-164.030 96.49-217.844h-0.49l320-320c32-32 64-64 96-64s64 32 96 64l320 320h-0.49c59.272 53.814 96.49 131.482 96.49 217.844zM841.468 478.768l-323.978-324.258c-1.678-1.678-3.532-3.532-5.49-5.48-1.96 1.95-3.814 3.802-5.49 5.48l-323.978 324.256c-35.166 31.928-54.532 75.638-54.532 123.078 0 91.618 74.538 166.156 166.156 166.156 47.44 0 91.15-19.366 123.076-54.532l94.768-104.38 94.768 104.378c31.928 35.168 75.636 54.534 123.076 54.534 91.618 0 166.156-74.538 166.156-166.156 0-47.44-19.368-91.15-54.532-123.076z" />
<glyph unicode="&#xe023;" d="M580.142 516.166v443.858h-136.262v-443.858h-443.856v-136.216h443.856v-443.926h136.262v443.926h443.834v136.216z" />
<glyph unicode="&#xe024;" d="M639.77 838.954l-48.598-84.2 112.216-64.8 48.6 84.204-112.218 64.796zM558.774 698.646l-242.994-420.852 112.216-64.796 242.994 420.852-112.216 64.796zM690.816 884.308l74.922-43.286c41.682-24.046 55.52-76.564 31.726-117.784l-70.364-121.79-275.394-477.042-169.254-111.708c-40.96-27.004-70.24-9.026-67.328 38.894l12.148 202.412 345.676 598.836c23.876 41.214 76.524 55.304 117.868 31.468zM274.69 76.986l120.908 79.818-112.218 64.8-8.69-144.618z" />
<glyph unicode="&#xe025;" d="M882.402 655.084h-113.644v45.506c0 142.796-115.752 258.55-258.54 258.55s-258.54-115.754-258.54-258.55v-45.506h-113.612c-46.982 0-85.064-46.726-85.064-104.346v-508.672c0-57.64 38.082-104.356 85.064-104.356h744.336c46.96 0 85.044 46.726 85.044 104.356l-0.002 508.672c0 57.62-38.082 104.346-85.042 104.346zM360.93 700.59c0 82.32 66.97 149.3 149.3 149.3s149.3-66.98 149.3-149.3v-45.506h-298.598l-0.002 45.506zM858.204 46.94h-695.962v498.892h695.952v-498.892z" />
<glyph unicode="&#xe026;" d="M416.554 473.944c0 0 94.142 6.994 94.142 117.398 0 110.402-77.026 164.276-174.588 164.276h-321.048v-616.978h321.050c0 0 195.974-6.17 195.974 182.11-0.002-0.002 8.554 153.194-115.53 153.194zM312.99 645.964h23.12c0 0 43.634 0 43.634-64.186s-25.676-73.496-54.772-73.496h-168.458v137.682h156.476zM328.006 248.296h-171.492v164.882h179.596c0 0 65.040 0.856 65.040-84.728 0-71.176-47.356-79.4-73.144-80.154zM793.472 598.646c-237.262 0-237.038-237.042-237.038-237.042s-16.294-235.846 237.052-235.846c0 0 211.106-12.062 211.106 164.064h-108.57c0 0 3.614-66.342-98.928-66.342 0 0-108.566-7.26-108.566 107.352h319.692c-0.002 0 34.97 267.814-214.748 267.814zM889.986 413.178h-202.676c0 0 13.27 95.104 108.584 95.104 95.306 0 94.092-95.104 94.092-95.104zM660.752 719.282h254.54v-76h-254.54z" />
<glyph unicode="&#xe027;" d="M0 651.63l41.594-54.544c0 0 85.77 67.608 114.36 33.802 28.588-33.802 137.736-441.956 174.17-517.246 31.8-66.030 119.518-153.32 215.714-90.982 96.136 62.34 415.84 335.286 473.066 657.616 57.18 322.226-384.72 254.726-431.53-26.010 116.99 70.236 179.436-28.538 119.57-140.372-59.758-111.724-114.36-184.592-142.952-184.592-28.538 0-50.49 74.768-83.188 205.446-33.798 135.102-33.592 378.46-174.116 350.87-132.518-26.012-306.688-233.988-306.688-233.988z" />
<glyph unicode="&#xe028;" d="M1007.728 94.002l-246.59 246.58c36.202 60.716 57.036 131.612 57.036 207.29 0 223.888-182.15 406.040-406.040 406.040-223.884 0-406.036-182.152-406.036-406.040 0-223.89 182.152-406.032 406.038-406.032 75.492 0 146.22 20.732 206.84 56.766 0.036-0.036 0.064-0.076 0.102-0.114l246.582-246.568c11.268-11.286 29.832-10.992 41.46 0.636l99.968 99.974c11.628 11.616 11.912 30.196 0.64 41.468zM105.412 547.872c0 169.126 137.596 306.722 306.722 306.722 169.128 0 306.722-137.594 306.722-306.722 0-169.122-137.594-306.716-306.722-306.716-169.126 0-306.722 137.594-306.722 306.716z" />
<glyph unicode="&#xe029;" d="M1013.402 952.632l10.862-10.86-1006.072-1006.072-10.86 10.86z" />
<glyph unicode="&#xe600;" d="M891.96 445.796c-18.086 0-35.348-3.52-51.064-9.856-10.506 114.358-110.29 204.060-232 204.060-29.786 0-58.682-5.63-84.318-15.164-9.96-3.702-12.578-7.52-12.578-14.916v-402.714c0-7.766 6.24-14.234 14.124-14.996 0.336-0.034 363.536-0.21 365.89-0.21 72.904 0 131.986 56.816 131.986 126.894s-59.134 126.902-132.040 126.902zM400 192h32l16 224.22-16 223.78h-32l-16-223.78zM304 192h-32l-16 162.75 16 157.25h32l16-160zM144 192h32l16 128-16 128h-32l-16-128zM16 256h32l16 64-16 64h-32l-16-64z" />
<glyph unicode="&#xe601;" d="M659.845 95.498c-7.557 0-15.135 2.908-20.91 8.663-11.571 11.551-11.571 30.269 0 41.82l271.524 271.524h-873.165c-16.323 0-29.573 13.251-29.573 29.614 0 16.323 13.23 29.573 29.573 29.573h873.165l-271.503 271.565c-11.53 11.551-11.53 30.269 0 41.82 11.53 11.53 30.269 11.53 41.82 0l342.876-342.958-342.917-342.958c-5.775-5.755-13.332-8.663-20.89-8.663z" />
<glyph unicode="&#xe602;" d="M284.433 444.143h473.225v-15.326h-473.225v15.326z" />
</font>
</defs>
</svg>
